Monella / Frivolous Lola (1998)

Vidéo
Monella / Frivolous Lola (1998)

Monella / Frivolous Lola (1998)
TVRip | 720x576 | French | MPEG2 @ 7919 kbps | AC-3 @ 256 kbps | 1 h 43 min | 6.04 GiB
Genre: Comedy, Romance

The story takes place in northern Italy in the 1950's. Lola and Masetto are about to get married. Masetto wants to keep Lola as a virgin until they are married. But Lola is impatient to remain in chastity until the wedding night. She wants to be sure that Masetto is a good lover, before she commits herself into marriage. She does everything to trick Masetto into breaking the moral tradition.

Monella - Anna Ammirati - Tinto Brass 1997 Fr.mpg (6.0 GB)



General
Complete name : ./Monella - Anna Ammirati - Tinto Brass 1997 Fr.mpg
Format : MPEG-PS
File size : 6.04 GiB
Duration : 1 h 43 min
Overall bit rate mode : Variable
Overall bit rate : 8 341 kb/s

Video
ID : 224 (0xE0)
Format : MPEG Video
Format version : Version 2
Format profile : Main@Main
Format settings : CustomMatrix / BVOP
Format settings, BVOP : Yes
Format settings, Matrix : Custom
Format settings, GOP : M=3, N=15
Format settings, picture structure : Frame
Duration : 1 h 43 min
Bit rate mode : Variable
Bit rate : 7 919 kb/s
Maximum bit rate : 8 300 kb/s
Width : 720 pixels
Height : 576 pixels
Display aspect ratio : 4:3
Frame rate : 25.000 FPS
Standard : PAL
Color space : YUV
Chroma subsampling : 4:2:0
Bit depth : 8 bits
Scan type : Interlaced
Scan order : Top Field First
Compression mode : Lossy
Bits/(Pixel*Frame) : 0.764
Time code of first frame : 00:00:04:16
Time code source : Group of pictures header
GOP, Open/Closed : Open
GOP, Open/Closed of first frame : Closed
Stream size : 5.74 GiB (95%)

Audio
ID : 189 (0xBD)-128 (0x80)
Format : AC-3
Format/Info : Audio Coding 3
Format settings, Endianness : Big
Muxing mode : DVD-Video
Duration : 1 h 43 min
Bit rate mode : Constant
Bit rate : 256 kb/s
Channel(s) : 2 channels
Channel positions : Front: L R
Sampling rate : 48.0 kHz
Frame rate : 31.250 FPS (1536 SPF)
Bit depth : 16 bits
Compression mode : Lossy
Delay relative to video : -16 ms
Stream size : 190 MiB (3%)
Service kind : Complete Main





Monella / Frivolous Lola (1998)


Monella / Frivolous Lola (1998)


Monella / Frivolous Lola (1998)


Monella / Frivolous Lola (1998)


Monella / Frivolous Lola (1998)