Hard Day (2014)

Vidéo
Hard Day (2014)

Hard Day (2014)
BDRip | MKV | 1280x544 | French | H264 @ 4123 kbps | DTS @ 1509 kbps | 1 h 50 min | 4.37 GiB
Subtitles: French
Genre: Drama/Crime

En route pour assister aux funérailles de sa mère, et tandis qu’il est visé par une enquête pour corruption, le commissaire KO Gun-su renverse accidentellement un homme. Pour se couvrir, il décide de cacher le corps dans le cercueil de sa mère.
Lorsque l’affaire est découverte, on nomme son partenaire pour mener l’enquête. Et quand l’unique témoin de l’accident l’appelle pour le faire chanter, Gun-su comprend qu’il n’est pas au bout de ses peines…

A.Hard.Day2014.FRENCH.720p.BluRay.x264-AKATSUKi.mkv (4.4 GB)



General
Unique ID : 189754625919886523907983561731606420109 (0x8EC1695F918E5B7D9AD4A629393D9A8D)
Complete name : ./A.Hard.Day2014.FRENCH.720p.BluRay.x264-AKATSUKi.mkv
Format : Matroska
Format version : Version 4 / Version 2
File size : 4.37 GiB
Duration : 1 h 50 min
Overall bit rate : 5 634 kb/s
Encoded date : UTC 2015-05-20 06:46:41
Writing application : mkvmerge v7.9.0 ('Birds') 64bit
Writing library : libebml v1.3.1 + libmatroska v1.4.2

Video
ID : 1
Format : AVC
Format/Info : Advanced Video Codec
Format profile : High@L4.1
Format settings : CABAC / 5 Ref Frames
Format settings, CABAC : Yes
Format settings, RefFrames : 5 frames
Codec ID : V_MPEG4/ISO/AVC
Duration : 1 h 50 min
Bit rate : 4 123 kb/s
Width : 1 280 pixels
Height : 544 pixels
Display aspect ratio : 2.35:1
Frame rate mode : Constant
Frame rate : 24.000 FPS
Color space : YUV
Chroma subsampling : 4:2:0
Bit depth : 8 bits
Scan type : Progressive
Bits/(Pixel*Frame) : 0.247
Stream size : 3.20 GiB (73%)
Writing library : x264 core 146 r2538 121396c
Encoding settings : cabac=1 / ref=5 / deblock=1:0:0 / analyse=0x3:0x113 / me=umh / subme=8 / psy=1 / psy_rd=1.00:0.00 / mixed_ref=1 / me_range=16 / chroma_me=1 / trellis=1 / 8x8dct=1 / cqm=0 / deadzone=21,11 / fast_pskip=1 / chroma_qp_offset=-2 / threads=18 / lookahead_threads=3 / sliced_threads=0 / nr=0 / decimate=1 / interlaced=0 / bluray_compat=0 / constrained_intra=0 / bframes=3 / b_pyramid=2 / b_adapt=2 / b_bias=0 / direct=3 / weightb=1 / open_gop=0 / weightp=2 / keyint=240 / keyint_min=24 / scenecut=40 / intra_refresh=0 / rc_lookahead=50 / rc=2pass / mbtree=1 / bitrate=4123 / ratetol=1.0 / qcomp=0.60 / qpmin=0 / qpmax=69 / qpstep=4 / cplxblur=20.0 / qblur=0.5 / ip_ratio=1.40 / aq=1:1.00
Default : Yes
Forced : No

Audio
ID : 2
Format : DTS
Format/Info : Digital Theater Systems
Mode : 16
Format settings, Endianness : Big
Codec ID : A_DTS
Duration : 1 h 50 min
Bit rate mode : Constant
Bit rate : 1 509 kb/s
Channel(s) : 6 channels
Channel positions : Front: L C R, Side: L R, LFE
Sampling rate : 48.0 kHz
Frame rate : 93.750 FPS (512 SPF)
Bit depth : 16 bits
Compression mode : Lossy
Stream size : 1.17 GiB (27%)
Language : French
Default : Yes
Forced : No

Text
ID : 3
Format : UTF-8
Codec ID : S_TEXT/UTF8
Codec ID/Info : UTF-8 Plain Text
Duration : 1 h 46 min
Bit rate : 0 b/s
Count of elements : 31
Stream size : 798 Bytes (0%)
Title : Forced
Language : French
Default : Yes
Forced : No

Menu
00:00:00.000 : en:Chapter 1
00:10:22.500 : en:Chapter 2
00:17:18.666 : en:Chapter 3
00:29:34.583 : en:Chapter 4
00:36:59.666 : en:Chapter 5
00:46:34.416 : en:Chapter 6
00:58:19.625 : en:Chapter 7
01:06:49.541 : en:Chapter 8
01:13:24.750 : en:Chapter 9
01:22:17.416 : en:Chapter 10
01:31:18.000 : en:Chapter 11
01:42:50.250 : en:Chapter 12





Hard Day (2014)


Hard Day (2014)


Hard Day (2014)


Hard Day (2014)


Hard Day (2014)