Shadow of a Doubt (1943)

Vidéo
Shadow of a Doubt (1943)

Shadow of a Doubt (1943)
BDRip | MKV | AVC 960x720, ~ 2.6 Mbps | 1hr 47mn | 6.18 GB
English: DTS, 2 ch, 1510 kbps; French: DTS, 2 ch, 766 kbps; Japanese \ Italian \ German \ Spanish \ Portuguese \ Russian: DTS, 2 ch, 448 kbps
Subtitles: English, Japanese, French, Italian, German, Spanish, Portuguese, Russian, Dutch, Danish, Finnish, Norwegian, Swedish
Genre: Thriller
IMDB Rating: 8.0/10 (49.678 votes)


Directors: Alfred Hitchcock
Actors: Teresa Wright, Joseph Cotten, Macdonald Carey

Charlotte 'Charlie' Newton is bored with her quiet life at home with her parents and her younger sister. She wishes something exciting would happen and knows exactly what they need: a visit from her sophisticated and much traveled uncle Charlie Oakley, her mother's younger brother. Imagine her delight when, out of the blue, they receive a telegram from uncle Charlie announcing that he is coming to visit them for awhile. Charlie Oakley creates quite a stir and charms the ladies club as well as the bank president where his brother-in-law works. Young Charlie begins to notice some odd behavior on his part, such as cutting out a story in the local paper about a man who marries and then murders rich widows. When two strangers appear asking questions about him, she begins to imagine the worst about her dearly beloved uncle Charlie.




General
Unique ID : 176332271822778448099536658901700763650 (0x84A85C391DE0DBC8A4C72EDACF18E002)
Complete name : M:\AHit3c2h.43.ShadowOfADoubt.7p1\AHit3c2h.43.ShadowOfADoubt.7p1.mkv
Format : Matroska
Format version : Version 4 / Version 2
File size : 6.18 GiB
Duration : 1 h 47 min
Overall bit rate : 8 209 kb/s
Movie name : Release RSU75
Encoded date : UTC 2017-12-26 05:11:19
Writing application : mkvmerge v6.6.0 ('The Edge Of The In Between') built on Dec 1 2013 17:55:00
Writing library : libebml v1.3.0 + libmatroska v1.4.1

Video
ID : 1
Format : AVC
Format/Info : Advanced Video Codec
Format profile : High@L3.1
Format settings : CABAC / 4 Ref Frames
Format settings, CABAC : Yes
Format settings, RefFrames : 4 frames
Codec ID : V_MPEG4/ISO/AVC
Duration : 1 h 47 min
Bit rate : 2 600 kb/s
Width : 960 pixels
Height : 720 pixels
Display aspect ratio : 4:3
Frame rate mode : Constant
Frame rate : 23.976 (23976/1000) FPS
Color space : YUV
Chroma subsampling : 4:2:0
Bit depth : 8 bits
Scan type : Progressive
Bits/(Pixel*Frame) : 0.157
Stream size : 1.99 GiB (32%)
Writing library : x264 core 144 r2533 c8a773e
Encoding settings : cabac=1 / ref=4 / deblock=1:0:0 / analyse=0x3:0x113 / me=umh / subme=8 / psy=1 / psy_rd=1.00:0.00 / mixed_ref=1 / me_range=24 / chroma_me=1 / trellis=1 / 8x8dct=1 / cqm=0 / deadzone=21,11 / fast_pskip=1 / chroma_qp_offset=-2 / threads=3 / lookahead_threads=1 / sliced_threads=0 / nr=0 / decimate=1 / interlaced=0 / bluray_compat=0 / constrained_intra=0 / bframes=3 / b_pyramid=0 / b_adapt=2 / b_bias=0 / direct=3 / weightb=1 / open_gop=0 / weightp=2 / keyint=250 / keyint_min=25 / scenecut=40 / intra_refresh=0 / rc_lookahead=40 / rc=abr / mbtree=1 / bitrate=2600 / ratetol=1.0 / qcomp=0.60 / qpmin=10 / qpmax=51 / qpstep=4 / ip_ratio=1.41 / aq=1:1.00
Language : English
Default : Yes
Forced : No

Audio #1
ID : 2
Format : DTS
Format/Info : Digital Theater Systems
Mode : 16
Format settings, Endianness : Big
Codec ID : A_DTS
Duration : 1 h 47 min
Bit rate mode : Constant
Bit rate : 1 509 kb/s
Channel(s) : 2 channels
Channel positions : Front: L R
Sampling rate : 48.0 kHz
Frame rate : 93.750 FPS (512 SPF)
Bit depth : 24 bits
Compression mode : Lossy
Delay relative to video : -42 ms
Stream size : 1.14 GiB (18%)
Language : English
Default : Yes
Forced : No

Audio #2
ID : 3
Format : DTS
Format/Info : Digital Theater Systems
Mode : 16
Format settings, Endianness : Big
Codec ID : A_DTS
Duration : 1 h 47 min
Bit rate mode : Constant
Bit rate : 447 kb/s
Channel(s) : 2 channels
Channel positions : Front: L R
Sampling rate : 48.0 kHz
Frame rate : 93.750 FPS (512 SPF)
Bit depth : 24 bits
Compression mode : Lossy
Delay relative to video : -42 ms
Stream size : 345 MiB (5%)
Language : Japanese
Default : No
Forced : No

Audio #3
ID : 4
Format : DTS
Format/Info : Digital Theater Systems
Mode : 16
Format settings, Endianness : Big
Codec ID : A_DTS
Duration : 1 h 47 min
Bit rate mode : Constant
Bit rate : 768 kb/s
Channel(s) : 2 channels
Channel positions : Front: L R
Sampling rate : 48.0 kHz
Frame rate : 93.750 FPS (512 SPF)
Bit depth : 24 bits
Compression mode : Lossy
Delay relative to video : -42 ms
Stream size : 592 MiB (9%)
Language : French
Default : No
Forced : No

Audio #4
ID : 5
Format : DTS
Format/Info : Digital Theater Systems
Mode : 16
Format settings, Endianness : Big
Codec ID : A_DTS
Duration : 1 h 47 min
Bit rate mode : Constant
Bit rate : 447 kb/s
Channel(s) : 2 channels
Channel positions : Front: L R
Sampling rate : 48.0 kHz
Frame rate : 93.750 FPS (512 SPF)
Bit depth : 24 bits
Compression mode : Lossy
Delay relative to video : -42 ms
Stream size : 345 MiB (5%)
Language : Italian
Default : No
Forced : No

Audio #5
ID : 6
Format : DTS
Format/Info : Digital Theater Systems
Mode : 16
Format settings, Endianness : Big
Codec ID : A_DTS
Duration : 1 h 47 min
Bit rate mode : Constant
Bit rate : 447 kb/s
Channel(s) : 2 channels
Channel positions : Front: L R
Sampling rate : 48.0 kHz
Frame rate : 93.750 FPS (512 SPF)
Bit depth : 24 bits
Compression mode : Lossy
Delay relative to video : -42 ms
Stream size : 345 MiB (5%)
Language : German
Default : No
Forced : No

Audio #6
ID : 7
Format : DTS
Format/Info : Digital Theater Systems
Mode : 16
Format settings, Endianness : Big
Codec ID : A_DTS
Duration : 1 h 47 min
Bit rate mode : Constant
Bit rate : 447 kb/s
Channel(s) : 2 channels
Channel positions : Front: L R
Sampling rate : 48.0 kHz
Frame rate : 93.750 FPS (512 SPF)
Bit depth : 24 bits
Compression mode : Lossy
Delay relative to video : -42 ms
Stream size : 345 MiB (5%)
Language : Spanish
Default : No
Forced : No

Audio #7
ID : 8
Format : DTS
Format/Info : Digital Theater Systems
Mode : 16
Format settings, Endianness : Big
Codec ID : A_DTS
Duration : 1 h 47 min
Bit rate mode : Constant
Bit rate : 447 kb/s
Channel(s) : 2 channels
Channel positions : Front: L R
Sampling rate : 48.0 kHz
Frame rate : 93.750 FPS (512 SPF)
Bit depth : 24 bits
Compression mode : Lossy
Delay relative to video : -42 ms
Stream size : 345 MiB (5%)
Language : Portuguese
Default : No
Forced : No

Audio #8
ID : 9
Format : DTS
Format/Info : Digital Theater Systems
Mode : 16
Format settings, Endianness : Big
Codec ID : A_DTS
Duration : 1 h 47 min
Bit rate mode : Constant
Bit rate : 447 kb/s
Channel(s) : 2 channels
Channel positions : Front: L R
Sampling rate : 48.0 kHz
Frame rate : 93.750 FPS (512 SPF)
Bit depth : 24 bits
Compression mode : Lossy
Delay relative to video : -42 ms
Stream size : 345 MiB (5%)
Language : Spanish
Default : No
Forced : No

Audio #9
ID : 10
Format : DTS
Format/Info : Digital Theater Systems
Mode : 16
Format settings, Endianness : Big
Codec ID : A_DTS
Duration : 1 h 47 min
Bit rate mode : Constant
Bit rate : 447 kb/s
Channel(s) : 2 channels
Channel positions : Front: L R
Sampling rate : 48.0 kHz
Frame rate : 93.750 FPS (512 SPF)
Bit depth : 24 bits
Compression mode : Lossy
Delay relative to video : -42 ms
Stream size : 345 MiB (5%)
Language : Russian
Default : No
Forced : No

Text #1
ID : 11
Format : PGS
Muxing mode : zlib
Codec ID : S_HDMV/PGS
Codec ID/Info : Picture based subtitle format used on BDs/HD-DVDs
Language : English
Default : No
Forced : No

Text #2
ID : 12
Format : PGS
Muxing mode : zlib
Codec ID : S_HDMV/PGS
Codec ID/Info : Picture based subtitle format used on BDs/HD-DVDs
Language : Japanese
Default : No
Forced : No

Text #3
ID : 13
Format : PGS
Muxing mode : zlib
Codec ID : S_HDMV/PGS
Codec ID/Info : Picture based subtitle format used on BDs/HD-DVDs
Language : French
Default : No
Forced : No

Text #4
ID : 14
Format : PGS
Muxing mode : zlib
Codec ID : S_HDMV/PGS
Codec ID/Info : Picture based subtitle format used on BDs/HD-DVDs
Language : Italian
Default : No
Forced : No

Text #5
ID : 15
Format : PGS
Muxing mode : zlib
Codec ID : S_HDMV/PGS
Codec ID/Info : Picture based subtitle format used on BDs/HD-DVDs
Language : German
Default : No
Forced : No

Text #6
ID : 16
Format : PGS
Muxing mode : zlib
Codec ID : S_HDMV/PGS
Codec ID/Info : Picture based subtitle format used on BDs/HD-DVDs
Language : Spanish
Default : No
Forced : No

Text #7
ID : 17
Format : PGS
Muxing mode : zlib
Codec ID : S_HDMV/PGS
Codec ID/Info : Picture based subtitle format used on BDs/HD-DVDs
Language : Portuguese
Default : No
Forced : No

Text #8
ID : 18
Format : PGS
Muxing mode : zlib
Codec ID : S_HDMV/PGS
Codec ID/Info : Picture based subtitle format used on BDs/HD-DVDs
Language : Spanish
Default : No
Forced : No

Text #9
ID : 19
Format : PGS
Muxing mode : zlib
Codec ID : S_HDMV/PGS
Codec ID/Info : Picture based subtitle format used on BDs/HD-DVDs
Language : Russian
Default : No
Forced : No

Text #10
ID : 20
Format : PGS
Muxing mode : zlib
Codec ID : S_HDMV/PGS
Codec ID/Info : Picture based subtitle format used on BDs/HD-DVDs
Language : Dutch
Default : No
Forced : No

Text #11
ID : 21
Format : PGS
Muxing mode : zlib
Codec ID : S_HDMV/PGS
Codec ID/Info : Picture based subtitle format used on BDs/HD-DVDs
Language : Danish
Default : No
Forced : No

Text #12
ID : 22
Format : PGS
Muxing mode : zlib
Codec ID : S_HDMV/PGS
Codec ID/Info : Picture based subtitle format used on BDs/HD-DVDs
Language : Finnish
Default : No
Forced : No

Text #13
ID : 23
Format : PGS
Muxing mode : zlib
Codec ID : S_HDMV/PGS
Codec ID/Info : Picture based subtitle format used on BDs/HD-DVDs
Language : Norwegian
Default : No
Forced : No

Text #14
ID : 24
Format : PGS
Muxing mode : zlib
Codec ID : S_HDMV/PGS
Codec ID/Info : Picture based subtitle format used on BDs/HD-DVDs
Language : Swedish
Default : No
Forced : No

Text #15
ID : 25
Format : PGS
Muxing mode : zlib
Codec ID : S_HDMV/PGS
Codec ID/Info : Picture based subtitle format used on BDs/HD-DVDs
Language : Japanese
Default : No
Forced : No

Text #16
ID : 26
Format : PGS
Muxing mode : zlib
Codec ID : S_HDMV/PGS
Codec ID/Info : Picture based subtitle format used on BDs/HD-DVDs
Language : French
Default : No
Forced : No

Text #17
ID : 27
Format : PGS
Muxing mode : zlib
Codec ID : S_HDMV/PGS
Codec ID/Info : Picture based subtitle format used on BDs/HD-DVDs
Language : Italian
Default : No
Forced : No

Text #18
ID : 28
Format : PGS
Muxing mode : zlib
Codec ID : S_HDMV/PGS
Codec ID/Info : Picture based subtitle format used on BDs/HD-DVDs
Language : German
Default : No
Forced : No

Text #19
ID : 29
Format : PGS
Muxing mode : zlib
Codec ID : S_HDMV/PGS
Codec ID/Info : Picture based subtitle format used on BDs/HD-DVDs
Language : Spanish
Default : No
Forced : No

Text #20
ID : 30
Format : PGS
Muxing mode : zlib
Codec ID : S_HDMV/PGS
Codec ID/Info : Picture based subtitle format used on BDs/HD-DVDs
Language : Spanish
Default : No
Forced : No

Text #21
ID : 31
Format : PGS
Muxing mode : zlib
Codec ID : S_HDMV/PGS
Codec ID/Info : Picture based subtitle format used on BDs/HD-DVDs
Language : Russian
Default : No
Forced : No

Menu
00:00:00.000 : en:Chapter 01
00:01:35.053 : en:Chapter 02
00:07:11.097 : en:Chapter 03
00:16:49.633 : en:Chapter 04
00:21:01.635 : en:Chapter 05
00:26:03.436 : en:Chapter 06
00:30:10.809 : en:Chapter 07
00:34:42.038 : en:Chapter 08
00:39:59.355 : en:Chapter 09
00:43:27.396 : en:Chapter 10
00:51:58.240 : en:Chapter 11
00:56:18.458 : en:Chapter 12
01:10:16.462 : en:Chapter 13
01:18:49.015 : en:Chapter 14
01:30:01.020 : en:Chapter 15
01:43:05.304 : en:Chapter 16
01:46:03.357 : en:Chapter 17
01:47:31.445 : en:Chapter 18




Screenshots (click to enlarge to original size):

Shadow of a Doubt (1943)

Shadow of a Doubt (1943)

Shadow of a Doubt (1943)


Shadow of a Doubt (1943)



–––––––––––––––––––––––––––––––––––––––-
>>> Other "BDRip" <<< OR >>> "Alfred Hitchcock" <<<
–––––––––––––––––––––––––––––––––––––––-
>>> Visit Blog RSU75 Here <<<
–––––––––––––––––––––––––––––––––––––––-