Aldo Romano - Mélodies en noir & blanc (2017) [Official Digital Download]

Vinyl & HR
Aldo Romano - Mélodies en noir & blanc (2017) [Official Digital Download]

Aldo Romano - Mélodies en noir & blanc (2017)
FLAC (tracks) 24-bit/44.1 kHz | Time - 39:46 minutes | 422 MB
Studio Master, Official Digital Download | Artwork: Front cover

It could be the title of a 1950s thriller. A little nostalgia for the time of my youth, of course. The time when the films were not all in color, where we guessed the blue eyes of Michelle Morgan, Jean Gabin, without being sure. This black and white of the film then made us dream; we gave it the color we imagined, and not the false reality of technicolor. I wanted to revisit songs that I composed a while ago. Time passes, the music remains timeless. Timeless like Gérard Manset's song "Il voyage en solitaire", which I sing here but who has been singing in me since the first time I heard it. And there is the piano. This instrument with big white and black teeth … Black and white keyboard, perfect symbol of a successful crossbreeding. The piano is a big orchestra between the fingers, a miracle.

Tracklist:

01. Lontano
02. Rosario
03. L.A. 58
04. Song for Ellis
05. Webb
06. On John's Guitar
07. Favela
08. Dreams and Waters
09. Inner Smile
10. Il voyage en solitaire

foobar2000 1.3.7 / Dynamic Range Meter 1.1.1
log date: 2018-01-08 12:15:05

––––––––––––––––––––––––––––––––––––––––
Analyzed: Aldo Romano / Mélodies en noir & blanc
––––––––––––––––––––––––––––––––––––––––

DR Peak RMS Duration Track
––––––––––––––––––––––––––––––––––––––––
DR10 -0.35 dB -14.16 dB 4:26 01-Lontano
DR10 0.00 dB -13.42 dB 3:20 02-Rosario
DR7 0.00 dB -9.01 dB 4:07 03-LA 58
DR10 0.00 dB -12.94 dB 4:26 04-Song for Ellis
DR8 0.00 dB -11.01 dB 3:17 05-Webb
DR9 -0.36 dB -12.65 dB 4:57 06-On John's Guitar
DR9 -0.20 dB -13.60 dB 2:20 07-Favela
DR10 -0.77 dB -14.42 dB 5:31 08-Dreams and Waters
DR10 -0.41 dB -15.06 dB 3:18 09-Inner Smile
DR10 0.00 dB -12.96 dB 4:11 10-Il voyage en solitaire
––––––––––––––––––––––––––––––––––––––––

Number of tracks: 10
Official DR value: DR9

Samplerate: 44100 Hz
Channels: 2
Bits per sample: 24
Bitrate: 1299 kbps
Codec: FLAC
================================================================================


All thanks go to the original releaser