Ask This Old House S16E09

Séries télévisées
Ask This Old House S16E09

Ask This Old House S16E09
HDTV | TS | 1920x1080 | English / Spanish / French | MPV @ 9826 kbps | AC-3 @ 384 kbps | 23 min 39 s | 1.82 GiB

The crew at This Old House take on some pretty big projects, which means they can only work on one or two houses a year. But homeowners have a virtual truckload of questions on smaller projects, and the This Old House crew is ready to answer. Ask This Old House solves the steady stream of home improvement problems faced by viewers - and the crew even makes house calls!

e79279967eb04147aad4b9073d7af489.ts (1.8 GB)



General
ID : 1 (0x1)
Complete name : ./e79279967eb04147aad4b9073d7af489.ts
Format : MPEG-TS
File size : 1.82 GiB
Duration : 23 min 39 s
Overall bit rate mode : Variable
Overall bit rate : 11.0 Mb/s
Law rating : TV-G

Video
ID : 5231 (0x146F)
Menu ID : 1050 (0x41A)
Format : MPEG Video
Format version : Version 2
Format profile : Main@High
Format settings : BVOP
Format settings, BVOP : Yes
Format settings, Matrix : Default
Format settings, GOP : Variable
Format settings, picture structure : Frame
Codec ID : 2
Duration : 23 min 39 s
Bit rate mode : Variable
Bit rate : 9 827 kb/s
Maximum bit rate : 80.0 Mb/s
Width : 1 920 pixels
Height : 1 080 pixels
Display aspect ratio : 16:9
Active Format Description : Full frame 16:9 image
Frame rate : 29.970 (30000/1001) FPS
Color space : YUV
Chroma subsampling : 4:2:0
Bit depth : 8 bits
Scan type : Interlaced
Scan order : Top Field First
Compression mode : Lossy
Bits/(Pixel*Frame) : 0.158
Time code of first frame : 00:00:00;02
Time code source : Group of pictures header
Stream size : 1.62 GiB (89%)

Audio #1
ID : 5232 (0x1470)
Menu ID : 1050 (0x41A)
Format : AC-3
Format/Info : Audio Coding 3
Format settings, Endianness : Big
Codec ID : 129
Duration : 23 min 39 s
Bit rate mode : Constant
Bit rate : 384 kb/s
Channel(s) : 2 channels
Channel positions : Front: L R
Sampling rate : 48.0 kHz
Frame rate : 31.250 FPS (1536 SPF)
Bit depth : 16 bits
Compression mode : Lossy
Delay relative to video : 8 ms
Stream size : 65.0 MiB (3%)
Language : English
Service kind : Complete Main

Audio #2
ID : 5233 (0x1471)
Menu ID : 1050 (0x41A)
Format : AC-3
Format/Info : Audio Coding 3
Format settings, Endianness : Big
Codec ID : 129
Duration : 23 min 39 s
Bit rate mode : Constant
Bit rate : 128 kb/s
Channel(s) : 2 channels
Channel positions : Front: L R
Sampling rate : 48.0 kHz
Frame rate : 31.250 FPS (1536 SPF)
Bit depth : 16 bits
Compression mode : Lossy
Delay relative to video : 9 ms
Stream size : 21.7 MiB (1%)
Language : Spanish
Service kind : Complete Main

Audio #3
ID : 5234 (0x1472)
Menu ID : 1050 (0x41A)
Format : AC-3
Format/Info : Audio Coding 3
Format settings, Endianness : Big
Codec ID : 129
Duration : 23 min 39 s
Bit rate mode : Constant
Bit rate : 128 kb/s
Channel(s) : 2 channels
Channel positions : Front: L R
Sampling rate : 48.0 kHz
Frame rate : 31.250 FPS (1536 SPF)
Bit depth : 16 bits
Compression mode : Lossy
Delay relative to video : 9 ms
Stream size : 21.7 MiB (1%)
Language : French
Service kind : Complete Main

Text #1
ID : 5231 (0x146F)-CC1
Menu ID : 1050 (0x41A)
Format : EIA-608
Muxing mode : A/53 / DTVCC Transport
Muxing mode, more info : Muxed in Video #1
Duration : 23 min 39 s
Bit rate mode : Constant
Stream size : 0.00 Byte (0%)
CaptionServiceName : CC1

Text #2
ID : 5231 (0x146F)-1
Menu ID : 1050 (0x41A)
Format : EIA-708
Muxing mode : A/53 / DTVCC Transport
Muxing mode, more info : Muxed in Video #1
Duration : 23 min 39 s
Bit rate mode : Constant
Stream size : 0.00 Byte (0%)





Ask This Old House S16E09


Ask This Old House S16E09


Ask This Old House S16E09


Ask This Old House S16E09


Ask This Old House S16E09