Bounty Killer (2013)

Vidéo
Bounty Killer (2013)

Bounty Killer (2013)
BDRip | MKV | 1280x720 | French | H264 @ 5525 kbps | DTS @ 1509 kbps | 1 h 28 min | 4.37 GiB
Genre: Thriller/Action

Un chasseur de primes débarque dans une petite ville pour récupérer une récompense. Une jeune femme le recrute alors pour régler un problème local.

bounty.killer.2013.french.720p.bluray.x264-akatsuki.mkv (4.4 GB)



General
Unique ID : 234681217933807283617509738356706961529 (0xB08DF56048394AEAA20201EB89CCE879)
Complete name : ./bounty.killer.2013.french.720p.bluray.x264-akatsuki.mkv
Format : Matroska
Format version : Version 4 / Version 2
File size : 4.37 GiB
Duration : 1 h 28 min
Overall bit rate : 7 035 kb/s
Encoded date : UTC 2014-04-16 20:45:49
Writing application : mkvmerge v6.8.0 ('Theme for Great Cities') 64bit built on Mar 2 2014 21:34:26
Writing library : libebml v1.3.0 + libmatroska v1.4.1

Video
ID : 1
Format : AVC
Format/Info : Advanced Video Codec
Format profile : High@L4.1
Format settings : CABAC / 5 Ref Frames
Format settings, CABAC : Yes
Format settings, RefFrames : 5 frames
Codec ID : V_MPEG4/ISO/AVC
Duration : 1 h 28 min
Bit rate : 5 525 kb/s
Width : 1 280 pixels
Height : 720 pixels
Display aspect ratio : 16:9
Frame rate mode : Constant
Frame rate : 25.000 FPS
Color space : YUV
Chroma subsampling : 4:2:0
Bit depth : 8 bits
Scan type : Progressive
Bits/(Pixel*Frame) : 0.240
Stream size : 3.35 GiB (77%)
Writing library : x264 core 138 r2358 9e941d1
Encoding settings : cabac=1 / ref=5 / deblock=1:0:0 / analyse=0x3:0x113 / me=umh / subme=8 / psy=1 / psy_rd=1.00:0.00 / mixed_ref=1 / me_range=16 / chroma_me=1 / trellis=1 / 8x8dct=1 / cqm=0 / deadzone=21,11 / fast_pskip=0 / chroma_qp_offset=-2 / threads=18 / lookahead_threads=3 / sliced_threads=0 / nr=0 / decimate=1 / interlaced=0 / bluray_compat=0 / constrained_intra=0 / bframes=3 / b_pyramid=2 / b_adapt=2 / b_bias=0 / direct=3 / weightb=1 / open_gop=0 / weightp=2 / keyint=250 / keyint_min=23 / scenecut=40 / intra_refresh=0 / rc_lookahead=50 / rc=2pass / mbtree=1 / bitrate=5525 / ratetol=1.0 / qcomp=0.60 / qpmin=0 / qpmax=69 / qpstep=4 / cplxblur=20.0 / qblur=0.5 / ip_ratio=1.40 / aq=1:1.00
Language : English
Default : Yes
Forced : No

Audio
ID : 2
Format : DTS
Format/Info : Digital Theater Systems
Mode : 16
Format settings, Endianness : Big
Codec ID : A_DTS
Duration : 1 h 28 min
Bit rate mode : Constant
Bit rate : 1 509 kb/s
Channel(s) : 6 channels
Channel positions : Front: L C R, Side: L R, LFE
Sampling rate : 48.0 kHz
Frame rate : 93.750 FPS (512 SPF)
Bit depth : 24 bits
Compression mode : Lossy
Stream size : 960 MiB (21%)
Title : Fr DTS 1509 Kbps
Language : French
Default : Yes
Forced : No

Menu
00:00:00.000 : fr:
00:12:07.599 : fr:
00:27:01.680 : fr:
00:43:52.720 : fr:
00:56:16.560 : fr:
01:10:42.360 : fr:





Bounty Killer (2013)


Bounty Killer (2013)


Bounty Killer (2013)


Bounty Killer (2013)


Bounty Killer (2013)