Jean-Christophe & Winnie (2018)

Vidéo
Jean-Christophe & Winnie (2018)

Jean-Christophe & Winnie (2018)
BDRip | MKV | 720x302 | French | H264 @ 850 kbps | AAC @ 119 kbps | 1 h 43 min | 723 MiB
Subtitles: French
Genre: Adventure, Animation, Comedy, Fantasy, Family

Le temps a passé. Jean-Christophe, le petit garçon qui adorait arpenter la Forêt des Rêves bleus en compagnie de ses adorables et intrépides animaux en peluche, est désormais adulte. Mais avec l'âge, il est devenu sérieux et a perdu toute son imagination. Pour lui rappeler l’enfant attachant et enjoué qu'il n’a jamais cessé d’être, ses célèbres amis vont prendre tous les risques, y compris celui de s'aventurer dans notre monde bien réel…

phd-christopherrobin.sd.mkv (722.7 MB)



General
Unique ID : 135495696876533576850538183513119985374 (0x65EF85A177166719BD0BDA928A850EDE)
Complete name : ./phd-christopherrobin.sd.mkv
Format : Matroska
Format version : Version 4 / Version 2
File size : 723 MiB
Duration : 1 h 43 min
Overall bit rate : 972 kb/s
Encoded date : UTC 2018-11-07 13:26:43
Writing application : mkvmerge v28.2.0 ('The Awakening') 64-bit
Writing library : libebml v1.3.6 + libmatroska v1.4.9

Video
ID : 1
Format : AVC
Format/Info : Advanced Video Codec
Format profile : High@L3.1
Format settings : CABAC / 5 Ref Frames
Format settings, CABAC : Yes
Format settings, RefFrames : 5 frames
Codec ID : V_MPEG4/ISO/AVC
Duration : 1 h 43 min
Bit rate : 850 kb/s
Width : 720 pixels
Height : 302 pixels
Display aspect ratio : 2.40:1
Frame rate mode : Constant
Frame rate : 23.976 (24000/1001) FPS
Color space : YUV
Chroma subsampling : 4:2:0
Bit depth : 8 bits
Scan type : Progressive
Bits/(Pixel*Frame) : 0.163
Stream size : 632 MiB (87%)
Writing library : x264 core 157 r2935 545de2f
Encoding settings : cabac=1 / ref=5 / deblock=1:-2:-2 / analyse=0x3:0x113 / me=hex / subme=8 / psy=1 / psy_rd=1.00:0.00 / mixed_ref=1 / me_range=16 / chroma_me=1 / trellis=2 / 8x8dct=1 / cqm=0 / deadzone=21,11 / fast_pskip=1 / chroma_qp_offset=-2 / threads=9 / lookahead_threads=1 / sliced_threads=0 / nr=0 / decimate=1 / interlaced=0 / bluray_compat=0 / constrained_intra=0 / bframes=3 / b_pyramid=2 / b_adapt=1 / b_bias=0 / direct=3 / weightb=1 / open_gop=0 / weightp=2 / keyint=250 / keyint_min=23 / scenecut=40 / intra_refresh=0 / rc_lookahead=50 / rc=crf / mbtree=1 / crf=19.0 / qcomp=0.60 / qpmin=0 / qpmax=69 / qpstep=4 / ip_ratio=1.40 / aq=1:0.70
Language : English
Default : Yes
Forced : No
Color range : Limited
Matrix coefficients : BT.709

Audio
ID : 2
Format : AAC
Format/Info : Advanced Audio Codec
Format profile : LC
Codec ID : A_AAC-2
Duration : 1 h 43 min
Bit rate : 120 kb/s
Channel(s) : 2 channels
Channel positions : Front: L R
Sampling rate : 48.0 kHz
Frame rate : 46.875 FPS (1024 SPF)
Compression mode : Lossy
Delay relative to video : 9 ms
Stream size : 88.9 MiB (12%)
Title : French AAC
Language : French
Default : Yes
Forced : No

Text
ID : 3
Format : UTF-8
Codec ID : S_TEXT/UTF8
Codec ID/Info : UTF-8 Plain Text
Duration : 12 min 25 s
Bit rate : 3 b/s
Count of elements : 18
Stream size : 366 Bytes (0%)
Title : Forced
Language : French
Default : Yes
Forced : No

Menu
00:00:00.000 : :00:00:00.000
00:01:43.729 : :00:01:43.729
00:07:36.289 : :00:07:36.289
00:12:32.919 : :00:12:32.919
00:23:47.843 : :00:23:47.843
00:32:18.186 : :00:32:18.186
00:44:35.673 : :00:44:35.673
00:54:39.526 : :00:54:39.526
00:59:13.800 : :00:59:13.800
01:08:01.703 : :01:08:01.703
01:18:46.180 : :01:18:46.180
01:29:59.769 : :01:29:59.769
01:36:04.467 : :01:36:04.467
01:38:32.031 : :01:38:32.031





Jean-Christophe & Winnie (2018)


Jean-Christophe & Winnie (2018)


Jean-Christophe & Winnie (2018)


Jean-Christophe & Winnie (2018)


Jean-Christophe & Winnie (2018)