Cleo from 5 to 7 / Cléo de 5 à 7 (1962)

Vidéo
Cleo from 5 to 7 / Cléo de 5 à 7 (1962)

Cleo from 5 to 7 / Cléo de 5 à 7 (1962)
BDRip 720p | MKV | 1200x720 | AVC@7943 kb/s | French FLAC@711 kb/s
Subs: English | 2 channels | 1 h 30 min | 5.47 GB
Genre: Comedy, Drama, Music

Cleo, a singer and hypochondriac, becomes increasingly worried that she might have cancer while awaiting test results from her doctor.

IMDB - 1 win & 1 nomination.


General
Cleo.from.5.to.7.1962.720p.BluRay.x264-USURY\cleo.from.5.to.7.1962.720p.bluray.x264-usury.mkv
Format : Matroska
Format version : Version 4 / Version 2
File size : 5.47 GiB
Duration : 1 h 30 min
Overall bit rate mode : Variable
Overall bit rate : 8 657 kb/s
Encoded date : UTC 2018-01-07 11:15:41
Writing application : mkvmerge v8.3.0 ('Over the Horizon') 64bit
Writing library : libebml v1.3.1 + libmatroska v1.4.2

Video
ID : 1
Format : AVC
Format/Info : Advanced Video Codec
Format profile : High@L4.1
Format settings, CABAC : Yes
Format settings, ReFrames : 5 frames
Codec ID : V_MPEG4/ISO/AVC
Duration : 1 h 30 min
Bit rate : 7 943 kb/s
Width : 1 200 pixels
Height : 720 pixels
Display aspect ratio : 5:3
Frame rate mode : Constant
Frame rate : 24.000 FPS
Color space : YUV
Chroma subsampling : 4:2:0
Bit depth : 8 bits
Scan type : Progressive
Bits/(Pixel*Frame) : 0.383
Stream size : 5.02 GiB (92%)
Writing library : x264 core 155 r2893 b00bcaf
Encoding settings : cabac=1 / ref=5 / deblock=1:-3:-3 / analyse=0x3:0x133 / me=umh / subme=9 / psy=1 / psy_rd=1.00:0.00 / mixed_ref=1 / me_range=16 / chroma_me=1 / trellis=2 / 8x8dct=1 / cqm=0 / deadzone=21,11 / fast_pskip=0 / chroma_qp_offset=-2 / threads=12 / lookahead_threads=1 / sliced_threads=0 / nr=0 / decimate=1 / interlaced=0 / bluray_compat=0 / constrained_intra=0 / bframes=3 / b_pyramid=2 / b_adapt=1 / b_bias=0 / direct=3 / weightb=1 / open_gop=0 / weightp=2 / keyint=240 / keyint_min=24 / scenecut=40 / intra_refresh=0 / rc_lookahead=50 / rc=2pass / mbtree=1 / bitrate=7943 / ratetol=1.0 / qcomp=0.60 / qpmin=0 / qpmax=69 / qpstep=4 / cplxblur=20.0 / qblur=0.5 / ip_ratio=1.40 / aq=1:1.00
Language : English
Default : Yes
Forced : No

Audio
ID : 2
Format : FLAC
Format/Info : Free Lossless Audio Codec
Codec ID : A_FLAC
Duration : 1 h 30 min
Bit rate mode : Variable
Bit rate : 711 kb/s
Channel(s) : 2 channels
Channel positions : Front: L R
Sampling rate : 48.0 kHz
Frame rate : 11.719 FPS (4096 spf)
Bit depth : 24 bits
Stream size : 460 MiB (8%)
Writing library : libFLAC 1.2.1 (UTC 2007-09-17)
Language : French
Default : Yes
Forced : No

Text
ID : 3
Format : UTF-8
Codec ID : S_TEXT/UTF8
Codec ID/Info : UTF-8 Plain Text
Duration : 1 h 28 min
Bit rate : 48 b/s
Count of elements : 1024
Stream size : 31.7 KiB (0%)
Title : English
Language : English
Default : Yes
Forced : Yes

Menu
00:00:00.000 : en:00:00:00.000
00:05:46.917 : en:00:05:46.917
00:11:44.042 : en:00:11:44.042
00:23:08.417 : en:00:23:08.417
00:31:52.792 : en:00:31:52.792
00:41:53.958 : en:00:41:53.958
00:49:29.292 : en:00:49:29.292
00:57:07.792 : en:00:57:07.792
01:05:07.500 : en:01:05:07.500
01:13:36.958 : en:01:13:36.958
01:18:33.500 : en:01:18:33.500
01:24:43.792 : en:01:24:43.792


BDRip 720p Screenshots

Cleo from 5 to 7 / Cléo de 5 à 7 (1962)

Cleo from 5 to 7 / Cléo de 5 à 7 (1962)

Cleo from 5 to 7 / Cléo de 5 à 7 (1962)


Come Visit My Blog (•‿•)