VA - Devos en musique(s) (2017) [Official Digital Download]

Vinyl & HR
VA - Devos en musique(s) (2017) [Official Digital Download]

VA - Devos en musique(s) (2017)
FLAC (tracks) 24-bit/44.1 kHz | Time - 38:21 minutes | 436 MB
Studio Master, Official Digital Download | Artwork: Front Cover

La musique a toujours pris une place importante chez Raymond Devos, dans ses spectacles déjà mais surtout dans la construction de ses sketches et plus encore dans son phrasé qui n’est pas sans rappeler celui du slam ou du hip hop. C’est de ce constat qu’est née l’idée de ce projet. Pour illustrer ce propos 8 sketchs interprétés par Devos ont été mis en musique alors que différents interprètes ont réadapté certains de ces sketchs en chansons : François Morel, Mc Jean Gab1, Boris Bergman.

Tracklist:
01. Je hais les haies - François Morel
02. Le plaisir des sens - Raymond Devos
03. Le savoir choir - Raymond Devos
04. Le fils d’Abraham ou l’appel du peuple - Raymond Devos
05. My Sweet Lion - Boris Bergman
06. Point de tête - Mc Jean Gab1
07. Oui dire - Raymond Devos
08. Caen - François Morel
09. Jeanne d’Arc - Raymond Devos
10. Où courent-ils ? - Raymond Devos
11. Le possédé du percepteur - Raymond Devos
12. Parler pour ne rien dire - Raymond Devos

foobar2000 1.3.7 / Dynamic Range Meter 1.1.1
log date: 2018-01-08 20:37:46

––––––––––––––––––––––––––––––––––––––––
Analyzed: Boris Bergman / Devos en musique(s) (1)
François Morel / Devos en musique(s) (2-3)
Mc Jean Gab1 / Devos en musique(s) (4)
Raymond Devos / Devos en musique(s) (5-12)
––––––––––––––––––––––––––––––––––––––––

DR Peak RMS Duration Track
––––––––––––––––––––––––––––––––––––––––
DR5 0.00 dB -6.11 dB 4:40 05-My Sweet Lion
DR8 0.00 dB -9.40 dB 1:19 01-Je hais les haies
DR9 0.00 dB -10.66 dB 2:19 08-Caen
DR10 0.00 dB -11.39 dB 1:51 06-Point de tête
DR7 0.00 dB -8.77 dB 3:34 02-Le plaisir des sens
DR7 0.00 dB -8.78 dB 4:12 03-Le savoir choir
DR8 0.00 dB -11.07 dB 3:18 04-Le fils d’Abraham ou l’appel du peuple
DR6 0.00 dB -7.88 dB 3:29 07-Oui dire
DR7 0.00 dB -9.11 dB 2:31 09-Jeanne d’Arc
DR7 0.00 dB -8.97 dB 2:39 10-Où courent-ils ?
DR8 0.00 dB -10.06 dB 5:20 11-Le possédé du percepteur
DR8 0.00 dB -9.95 dB 3:16 12-Parler pour ne rien dire
––––––––––––––––––––––––––––––––––––––––

Number of tracks: 12
Official DR value: DR7

Samplerate: 44100 Hz
Channels: 2
Bits per sample: 24
Bitrate: 1610 kbps
Codec: FLAC
================================================================================


Thanks to the Original customer.