Enquete exclusive - Arabie Saoudite : la folle vie d'un prince dechu (2017)

Vidéo
Enquete exclusive - Arabie Saoudite : la folle vie d'un prince dechu (2017)

Enquete exclusive - Arabie Saoudite : la folle vie d'un prince dechu (2017)
HDTV | MKV | 1280x716 | English | H264 @ 4267 kbps | MPEG Audio @ 256 kbps | 1 h 16 min | 2.43 GiB
Genre: Documentaries

Jusqu'au 5 novembre 2017, le prince Al-Walid Ben Tahal était l'une des personnalités saoudiennes les plus influentes du monde.
Il a été arrêté au nom de la lutte anti-corruption dans le cadre d'une purge sans précédent lancée par son cousin, le prince Mohammed Ben Salman, tout comme une quarantaine de personnalités publiques.

En 2005, les équipes d'«Enquête exclusive» suivaient cette extravagante figure saoudienne à bord de ses jets privés, de son yacht, dans son palais de Riyad et dans un palace parisien qui lui appartient.

Richissime, le prince Al-Walid fait également profiter les autres de ses largesses et s'emploie à améliorer les relations entre l'Occident et l'Arabie Saoudite.

enquete.exclusive.arabie.saoudite.la.folle.vie.d.un.prince.dechu.doc.french.720p.hdtv.x264-sh0w.mkv (2.4 GB)
enquete.exclusive.arabie.saoudite.la.folle.vie.d.un.prince.dechu.doc.french.720p.hdtv.x264-sh0w.sample.mkv (38.5 MB)



General
Unique ID : 232271243749671445426368780313727802812 (0xAEBDD0799E6AD3AF86E8F422DF6F1DBC)
Complete name : ./enquete.exclusive.arabie.saoudite.la.folle.vie.d.un.prince.dechu.doc.french.720p.hdtv.x264-sh0w.mkv
Format : Matroska
Format version : Version 4 / Version 2
File size : 2.43 GiB
Duration : 1 h 16 min
Overall bit rate : 4 527 kb/s
Encoded date : UTC 2017-11-13 03:44:44
Writing application : mkvmerge v17.0.0 ('Be Ur Friend') 64-bit
Writing library : libebml v1.3.5 + libmatroska v1.4.8

Video
ID : 1
Format : AVC
Format/Info : Advanced Video Codec
Format profile : High@L4.1
Format settings : CABAC / 5 Ref Frames
Format settings, CABAC : Yes
Format settings, RefFrames : 5 frames
Codec ID : V_MPEG4/ISO/AVC
Duration : 1 h 16 min
Bit rate : 4 268 kb/s
Width : 1 280 pixels
Height : 716 pixels
Display aspect ratio : 16:9
Frame rate mode : Constant
Frame rate : 50.000 FPS
Color space : YUV
Chroma subsampling : 4:2:0
Bit depth : 8 bits
Scan type : Progressive
Bits/(Pixel*Frame) : 0.093
Stream size : 2.29 GiB (94%)
Writing library : x264 core 152 r2851 ba24899
Encoding settings : cabac=1 / ref=5 / deblock=1:0:0 / analyse=0x3:0x113 / me=hex / subme=8 / psy=1 / psy_rd=1.00:0.00 / mixed_ref=1 / me_range=16 / chroma_me=1 / trellis=2 / 8x8dct=1 / cqm=0 / deadzone=21,11 / fast_pskip=1 / chroma_qp_offset=-2 / threads=18 / lookahead_threads=3 / sliced_threads=0 / nr=0 / decimate=1 / interlaced=0 / bluray_compat=0 / constrained_intra=0 / bframes=3 / b_pyramid=2 / b_adapt=1 / b_bias=0 / direct=3 / weightb=1 / open_gop=0 / weightp=2 / keyint=250 / keyint_min=25 / scenecut=40 / intra_refresh=0 / rc_lookahead=50 / rc=crf / mbtree=1 / crf=20.0 / qcomp=0.60 / qpmin=10 / qpmax=69 / qpstep=4 / ip_ratio=1.40 / aq=1:1.00
Default : Yes
Forced : No

Audio
ID : 2
Format : MPEG Audio
Format version : Version 1
Format profile : Layer 2
Codec ID : A_MPEG/L2
Codec ID/Hint : MP2
Duration : 1 h 16 min
Bit rate mode : Constant
Bit rate : 256 kb/s
Channel(s) : 2 channels
Sampling rate : 48.0 kHz
Frame rate : 41.667 FPS (1152 SPF)
Compression mode : Lossy
Stream size : 141 MiB (6%)
Default : Yes
Forced : No





Enquete exclusive - Arabie Saoudite : la folle vie d'un prince dechu (2017)


Enquete exclusive - Arabie Saoudite : la folle vie d'un prince dechu (2017)


Enquete exclusive - Arabie Saoudite : la folle vie d'un prince dechu (2017)


Enquete exclusive - Arabie Saoudite : la folle vie d'un prince dechu (2017)


Enquete exclusive - Arabie Saoudite : la folle vie d'un prince dechu (2017)