France Gall - Babacar (1987) Repost

Musique
France Gall - Babacar (1987) Repost

France Gall - Babacar (1987)
EAC Rip | FLAC (Img) + Cue + Log ~ 241 Mb | MP3 CBR320 ~ 85 Mb
Full Scans (PNG, 400 dpi) ~ 78 Mb | RAR 5% Recovery
Pop | Apache / Wea Music #2292-42096-2

Babacar is a 1987 music album by France Gall with music and lyrics by Michel Berger. It is certified Diamond. Although she's best-known as the pretty, perky teenager who won the 1965 Eurovision Song Contest with her hit "Poupee de Cire, Poupee de Son," French pop singer France Gall has had a much longer and more varied career than that, having released solid records almost non-stop since the early '60s. Although only a cult figure in most of the rest of the world, Gall is a major star and beloved figure in her native country.

***************

France Gall - Babacar (1987) Repost

France Gall - Babacar (1987) Repost

Track List:

01. Papillon de nuit [0:04:58.37]
02. Dancing brave [0:03:07.55]
03. Babacar [0:04:49.25]
04. J'irai ou tu iras [0:03:51.18]
05. Ella, elle l'a [0:04:51.35]
06. Evidemment [0:03:26.47]
07. La Chanson d'Azima [0:02:46.48]
08. Urgent d'attendre [0:03:44.35]
09. C'est bon que tu sois lа [0:03:40.55]

Exact Audio Copy V0.99 prebeta 5 from 4. May 2009

EAC extraction logfile from 9. November 2009, 18:32

France Gall / Babacar

Used drive : ASUS DRW-1608P Adapter: 2 ID: 0

Read mode : Secure
Utilize accurate stream : Yes
Defeat audio cache : Yes
Make use of C2 pointers : No

Read offset correction : 48
Overread into Lead-In and Lead-Out : No
Fill up missing offset samples with silence : Yes
Delete leading and trailing silent blocks : No
Null samples used in CRC calculations : Yes
Used interface : Installed external ASPI interface

Used output format : User Defined Encoder
Selected bitrate : 1024 kBit/s
Quality : High
Add ID3 tag : No
Command line compressor : C:\Program Files (x86)\Exact Audio Copy\Flac\flac.exe
Additional command line options : -5 -V -T "ARTIST=%a" -T "TITLE=%t" -T "ALBUM=%g" -T "DATE=%y" -T "TRACKNUMBER=%n" -T "GENRE=%m" -T "COMMENT=EAC FLAC -5" %s


TOC of the extracted CD

Track | Start | Length | Start sector | End sector
––––––––––––––––––––––––––––-
1 | 0:00.00 | 4:58.37 | 0 | 22386
2 | 4:58.37 | 3:07.55 | 22387 | 36466
3 | 8:06.17 | 4:49.25 | 36467 | 58166
4 | 12:55.42 | 3:51.18 | 58167 | 75509
5 | 16:46.60 | 4:51.35 | 75510 | 97369
6 | 21:38.20 | 3:26.47 | 97370 | 112866
7 | 25:04.67 | 2:46.48 | 112867 | 125364
8 | 27:51.40 | 3:44.35 | 125365 | 142199
9 | 31:36.00 | 3:40.55 | 142200 | 158754


Range status and errors

Selected range

Filename F:\France Gall\France Gall - 1987 - Babacar\France Gall - Babacar.wav

Peak level 87.0 %
Range quality 100.0 %
Test CRC BB54D3BE
Copy CRC BB54D3BE
Copy OK

No errors occurred


AccurateRip summary

Track 1 accurately ripped (confidence 4) [19908F5B]
Track 2 accurately ripped (confidence 4) [30905593]
Track 3 accurately ripped (confidence 4) [3B2C7024]
Track 4 accurately ripped (confidence 4) [418812A1]
Track 5 accurately ripped (confidence 4) [4CE67D29]
Track 6 accurately ripped (confidence 4) [7B29670D]
Track 7 accurately ripped (confidence 4) [817649B7]
Track 8 accurately ripped (confidence 4) [45E06F64]
Track 9 accurately ripped (confidence 2) [34422639]

All tracks accurately ripped

End of status report

foobar2000 1.3.16 / Dynamic Range Meter 1.1.1
log date: 2018-01-10 14:37:12

––––––––––––––––––––––––––––––––––––––––
Analyzed: France Gall / Babacar
––––––––––––––––––––––––––––––––––––––––

DR Peak RMS Duration Track
––––––––––––––––––––––––––––––––––––––––
DR13 -1.20 dB -16.76 dB 4:58 01-Papillon de nuit
DR13 -1.20 dB -18.62 dB 3:08 02-Dancing brave
DR12 -1.20 dB -15.83 dB 4:49 03-Babacar
DR14 -1.20 dB -18.08 dB 3:51 04-J'irai ou tu iras
DR13 -1.20 dB -16.67 dB 4:51 05-Ella, elle l'a
DR13 -5.20 dB -22.66 dB 3:27 06-Evidemment
DR16 -1.20 dB -20.10 dB 2:47 07-La Chanson d'Azima
DR12 -1.20 dB -15.17 dB 3:44 08-Urgent d'attendre
DR16 -1.76 dB -19.72 dB 3:41 09-C'est bon que tu sois lа
––––––––––––––––––––––––––––––––––––––––

Number of tracks: 9
Official DR value: DR14

Samplerate: 44100 Hz
Channels: 2
Bits per sample: 16
Bitrate: 909 kbps
Codec: FLAC
================================================================================

[CUETools log; Date: 10.01.2018 14:37:43; Version: 2.1.5]
[CTDB TOCID: YmAJ1jDcj7ITo0C00zZoUlSWwwk-] found.
Track | CTDB Status
1 | (231/243) Accurately ripped
2 | (231/243) Accurately ripped
3 | (233/243) Accurately ripped
4 | (236/243) Accurately ripped
5 | (238/243) Accurately ripped
6 | (237/243) Accurately ripped
7 | (238/243) Accurately ripped
8 | (239/243) Accurately ripped
9 | (236/243) Accurately ripped
[AccurateRip ID: 000ca6a0-005bb079-72084409] found.
Track [ CRC | V2 ] Status
01 [19908f5b|d24cd17c] (012+016/221) Accurately ripped
02 [30905593|8d1f2290] (012+016/224) Accurately ripped
03 [3b2c7024|58da0a4e] (012+016/225) Accurately ripped
04 [418812a1|4f25155b] (012+016/224) Accurately ripped
05 [4ce67d29|4545a182] (012+016/226) Accurately ripped
06 [7b29670d|8b9f8586] (012+016/223) Accurately ripped
07 [817649b7|cbd6066c] (012+016/225) Accurately ripped
08 [45e06f64|d81f279a] (012+016/226) Accurately ripped
09 [34422639|53c95348] (010+016/222) Accurately ripped
Offsetted by 664:
01 [0de7d55f] (021/221) Accurately ripped
02 [d56c4618] (023/224) Accurately ripped
03 [e7bde5c2] (024/225) Accurately ripped
04 [381de20a] (023/224) Accurately ripped
05 [33759605] (024/226) Accurately ripped
06 [52d1688c] (023/223) Accurately ripped
07 [2d26671e] (023/225) Accurately ripped
08 [85c2678c] (023/226) Accurately ripped
09 [b20c8783] (021/222) Accurately ripped
Offsetted by 261:
01 [e80966a7] (000/221) No match (V2 was not tested)
02 [54e93097] (000/224) No match (V2 was not tested)
03 [df45aad5] (000/225) No match (V2 was not tested)
04 [0e7998f9] (000/224) No match (V2 was not tested)
05 [87e57859] (000/226) No match (V2 was not tested)
06 [863b0971] (000/223) No match (V2 was not tested)
07 [7f2117ad] (000/225) No match (V2 was not tested)
08 [7ab55e8a] (000/226) No match (V2 was not tested)
09 [fec4033b] (000/222) No match (V2 was not tested)

Track Peak [ CRC32 ] [W/O NULL] [ LOG ]
– 87,0 [BB54D3BE] [755AFEC4] CRC32
01 87,0 [096AE1DD] [D580A258]
02 87,0 [B70930CF] [EBCA3613]
03 87,0 [3BE0B249] [01A08F5B]
04 87,0 [484379D7] [2F6381AB]
05 87,0 [55935A17] [5B42497C]
06 54,9 [BCDFF449] [298DB8CB]
07 87,0 [98AC69D7] [D45CC6D8]
08 87,0 [CC380A2B] [C3A8CD41]
09 81,7 [430DE852] [EF7FC2EC]

France Gall - Babacar (1987) Repost

All thanks go to bvstudio

>>> My Blog <<<

Download from icerbox.com: