France Gall - France Gall (1988)

Musique
France Gall - France Gall (1988)

France Gall - France Gall (1988)
EAC Rip | FLAC (Img) + Cue + Log ~ 260 Mb | MP3 CBR320 ~ 101 Mb
Full Scans (PNG, 400 dpi) ~ 87 Mb | RAR 5% Recovery
French Pop | Apache / Wea Music #2292-42287-2

France Gall is a compilation album by French singer France Gall, released in 1988. Although she's best-known as the pretty, perky teenager who won the 1965 Eurovision Song Contest with her hit "Poupee de Cire, Poupee de Son," French pop singer France Gall has had a much longer and more varied career than that, having released solid records almost non-stop since the early '60s. Although only a cult figure in most of the rest of the world, Gall is a major star and beloved figure in her native country.

***************

France Gall - France Gall (1988)

France Gall - France Gall (1988)

Track List:

01. La declaration d'amour [0:03:21.00]
02. Ce garcon qui danse [0:04:03.45]
03. Bebe comme la vie [0:03:18.05]
04. Tout pour la musique [0:04:42.02]
05. Resiste [0:04:31.63]
06. Diego, libre dans sa tete [0:02:58.40]
07. Amor tambien [0:02:49.12]
08. La chanson de Maggie [0:03:08.15]
09. Plus haut [0:02:49.23]
10. J'ai besoin de vous [0:03:46.47]
11. Plus d'ete [0:03:02.33]
12. Vahine, Va [0:03:33.47]

Exact Audio Copy V0.99 prebeta 5 from 4. May 2009

EAC extraction logfile from 9. November 2009, 18:15

France Gall / France Gall

Used drive : ASUS DRW-1608P Adapter: 2 ID: 0

Read mode : Secure
Utilize accurate stream : Yes
Defeat audio cache : Yes
Make use of C2 pointers : No

Read offset correction : 48
Overread into Lead-In and Lead-Out : No
Fill up missing offset samples with silence : Yes
Delete leading and trailing silent blocks : No
Null samples used in CRC calculations : Yes
Used interface : Installed external ASPI interface

Used output format : User Defined Encoder
Selected bitrate : 1024 kBit/s
Quality : High
Add ID3 tag : No
Command line compressor : C:\Program Files (x86)\Exact Audio Copy\Flac\flac.exe
Additional command line options : -5 -V -T "ARTIST=%a" -T "TITLE=%t" -T "ALBUM=%g" -T "DATE=%y" -T "TRACKNUMBER=%n" -T "GENRE=%m" -T "COMMENT=EAC FLAC -5" %s


TOC of the extracted CD

Track | Start | Length | Start sector | End sector
––––––––––––––––––––––––––––-
1 | 0:00.00 | 3:21.00 | 0 | 15074
2 | 3:21.00 | 4:03.45 | 15075 | 33344
3 | 7:24.45 | 3:18.05 | 33345 | 48199
4 | 10:42.50 | 4:42.02 | 48200 | 69351
5 | 15:24.52 | 4:31.63 | 69352 | 89739
6 | 19:56.40 | 2:58.40 | 89740 | 103129
7 | 22:55.05 | 2:49.12 | 103130 | 115816
8 | 25:44.17 | 3:08.15 | 115817 | 129931
9 | 28:52.32 | 2:49.23 | 129932 | 142629
10 | 31:41.55 | 3:46.47 | 142630 | 159626
11 | 35:28.27 | 3:02.33 | 159627 | 173309
12 | 38:30.60 | 3:33.47 | 173310 | 189331


Range status and errors

Selected range

Filename F:\France Gall\France Gall - 1988 - France Gall\France Gall - France Gall.wav

Peak level 95.2 %
Range quality 100.0 %
Test CRC 24E4D10E
Copy CRC 24E4D10E
Copy OK

No errors occurred


AccurateRip summary

Track 1 accurately ripped (confidence 1) [DF7A470B]
Track 2 accurately ripped (confidence 1) [CF676412]
Track 3 accurately ripped (confidence 1) [8EC8D90B]
Track 4 accurately ripped (confidence 1) [54EC91B1]
Track 5 accurately ripped (confidence 1) [16ED50A2]
Track 6 accurately ripped (confidence 1) [6A88D982]
Track 7 accurately ripped (confidence 1) [0FDB1665]
Track 8 accurately ripped (confidence 1) [2CDE4B4D]
Track 9 accurately ripped (confidence 1) [795A6B58]
Track 10 accurately ripped (confidence 1) [5BB7B579]
Track 11 accurately ripped (confidence 1) [89FE5F89]
Track 12 cannot be verified as accurate (confidence 1) [961FF938], AccurateRip returned [072FF1BC]

11 track(s) accurately ripped
1 track(s) could not be verified as accurate

Some tracks could not be verified as accurate

End of status report

foobar2000 1.3.16 / Dynamic Range Meter 1.1.1
log date: 2018-01-11 12:50:47

––––––––––––––––––––––––––––––––––––––––
Analyzed: France Gall / France Gall
––––––––––––––––––––––––––––––––––––––––

DR Peak RMS Duration Track
––––––––––––––––––––––––––––––––––––––––
DR11 -1.17 dB -14.96 dB 3:21 01-La declaration d'amour
DR12 -0.83 dB -15.51 dB 4:04 02-Ce garcon qui danse
DR13 -0.42 dB -16.11 dB 3:18 03-Bebe comme la vie
DR12 -0.91 dB -16.22 dB 4:42 04-Tout pour la musique
DR12 -0.62 dB -15.26 dB 4:32 05-Resiste
DR13 -1.45 dB -18.13 dB 2:59 06-Diego, libre dans sa tete
DR12 -0.48 dB -15.33 dB 2:49 07-Amor tambien
DR11 -1.14 dB -16.53 dB 3:08 08-La chanson de Maggie
DR13 -2.17 dB -17.55 dB 2:49 09-Plus haut
DR12 -1.05 dB -17.95 dB 3:47 10-J'ai besoin de vous
DR12 -1.14 dB -16.05 dB 3:02 11-Plus d'ete
DR13 -1.34 dB -17.03 dB 3:34 12-Vahine, Va
––––––––––––––––––––––––––––––––––––––––

Number of tracks: 12
Official DR value: DR12

Samplerate: 44100 Hz
Channels: 2
Bits per sample: 16
Bitrate: 822 kbps
Codec: FLAC
================================================================================

[CUETools log; Date: 11.01.2018 14:17:44; Version: 2.1.5]
[CTDB TOCID: fTXMEsTlVK0gNUZkwBcVhYa9FPw-] found.
Track | CTDB Status
1 | (10/10) Accurately ripped
2 | (10/10) Accurately ripped
3 | (10/10) Accurately ripped
4 | ( 8/10) Accurately ripped, or (2/10) differs in 78 samples @01:11:26
5 | (10/10) Accurately ripped
6 | (10/10) Accurately ripped
7 | (10/10) Accurately ripped
8 | (10/10) Accurately ripped
9 | (10/10) Accurately ripped
10 | (10/10) Accurately ripped
11 | (10/10) Accurately ripped
12 | (10/10) Accurately ripped
[AccurateRip ID: 00135ef2-00b34785-9309dc0c] found.
Track [ CRC | V2 ] Status
01 [df7a470b|525a17d0] (0+3/3) Accurately ripped
02 [cf676412|5a45c33b] (0+4/4) Accurately ripped
03 [8ec8d90b|9e3c22f1] (0+3/3) Accurately ripped
04 [54ec91b1|2eaaeee4] (0+4/4) Accurately ripped
05 [16ed50a2|582482e8] (0+4/4) Accurately ripped
06 [6a88d982|1536effc] (0+4/4) Accurately ripped
07 [0fdb1665|8738c7f9] (0+4/4) Accurately ripped
08 [2cde4b4d|978f75dc] (0+4/4) Accurately ripped
09 [795a6b58|3857bd03] (0+4/4) Accurately ripped
10 [5bb7b579|a447d0eb] (0+4/4) Accurately ripped
11 [89fe5f89|f6ea6c26] (0+4/4) Accurately ripped
12 [961ff938|bf7417e6] (0+4/4) Accurately ripped

Track Peak [ CRC32 ] [W/O NULL] [ LOG ]
– 95,2 [24E4D10E] [0B339BF7] CRC32
01 87,3 [F2DC7E0D] [6DFAD677]
02 90,8 [926C8C22] [28E86E42]
03 95,2 [ADD47500] [7B6A2DEC]
04 90,0 [8F969475] [2F27E239]
05 93,0 [2817BDFB] [2B762966]
06 84,6 [C4FD7B5D] [3174BEBD]
07 94,5 [897EB31C] [C07BA6AB]
08 87,7 [CD10D5B4] [088B456E]
09 77,9 [FDC2FAE2] [B4A5053F]
10 88,6 [80587B79] [3E491845]
11 87,7 [F7DA697E] [8051C530]
12 85,6 [E9AB1C73] [4AA61F3C]

France Gall - France Gall (1988)

See also:
France Gall - Babacar (1987)

All thanks go to bvstudio

>>> My Blog <<<

Download from icerbox.com: