Mr. Robot S03E01

Séries télévisées
Mr. Robot S03E01

Mr. Robot S03E01
WEB-DL | MKV | 720x406 | French | H264 @ 469 kbps | AAC @ 159 kbps | 51 min 13 s | 232 MiB
Subtitles: French
Genre: Mystery, Crime, Drama

A contemporary and culturally resonant drama about a young programmer, Elliot, who suffers from a debilitating anti-social disorder and decides that he can only connect to people by hacking them. He wields his skills as a weapon to protect the people that he cares about. Elliot will find himself in the intersection between a cybersecurity firm he works for and the underworld organizations that are recruiting him to bring down corporate America.

Mr.Robot.S03E02.FRENCH.LD.AMZN.WEB-DL.x264-FRATERNiTY.mkv (192.5 MB)
Mr.Robot.S03E01.FRENCH.LD.AMZN.WEB-DL.x264-FRATERNiTY.mkv (231.6 MB)



General
Unique ID : 179928366764356954217475469670372809462 (0x875CF1647D9E9C8AAF6FB85DAC0F1AF6)
Complete name : ./Mr.Robot.S03E01.FRENCH.LD.AMZN.WEB-DL.x264-FRATERNiTY.mkv
Format : Matroska
Format version : Version 4 / Version 2
File size : 232 MiB
Duration : 51 min 13 s
Overall bit rate : 632 kb/s
Movie name : Mr.Robot.S03E01.FRENCH.LD.AMZN.WEB-DL.x264-FRATERNiTY
Encoded date : UTC 2018-01-09 21:46:39
Writing application : mkvmerge v19.0.0 ('Brave Captain') 64-bit
Writing library : libebml v1.3.5 + libmatroska v1.4.8

Video
ID : 1
Format : AVC
Format/Info : Advanced Video Codec
Format profile : High@L3.1
Format settings : CABAC / 5 Ref Frames
Format settings, CABAC : Yes
Format settings, RefFrames : 5 frames
Codec ID : V_MPEG4/ISO/AVC
Duration : 51 min 13 s
Bit rate : 470 kb/s
Width : 720 pixels
Height : 406 pixels
Display aspect ratio : 16:9
Frame rate mode : Constant
Frame rate : 25.000 FPS
Color space : YUV
Chroma subsampling : 4:2:0
Bit depth : 8 bits
Scan type : Progressive
Bits/(Pixel*Frame) : 0.064
Stream size : 172 MiB (74%)
Title : Mr.Robot.S03E01.FRENCH.LD.AMZN.WEB-DL.x264-FRATERNiTY
Writing library : x264 core 152 r2851 ba24899
Encoding settings : cabac=1 / ref=5 / deblock=1:0:0 / analyse=0x3:0x113 / me=hex / subme=9 / psy=1 / psy_rd=1.00:0.00 / mixed_ref=1 / me_range=16 / chroma_me=1 / trellis=1 / 8x8dct=1 / cqm=0 / deadzone=21,11 / fast_pskip=1 / chroma_qp_offset=-2 / threads=12 / lookahead_threads=1 / sliced_threads=0 / nr=0 / decimate=1 / interlaced=0 / bluray_compat=0 / constrained_intra=0 / bframes=3 / b_pyramid=2 / b_adapt=1 / b_bias=0 / direct=1 / weightb=1 / open_gop=0 / weightp=2 / keyint=250 / keyint_min=25 / scenecut=40 / intra_refresh=0 / rc_lookahead=50 / rc=crf / mbtree=1 / crf=19.0 / qcomp=0.60 / qpmin=0 / qpmax=69 / qpstep=4 / ip_ratio=1.40 / aq=1:1.00
Language : French
Default : Yes
Forced : No
Color range : Limited
Color primaries : BT.709
Transfer characteristics : BT.709
Matrix coefficients : BT.709

Audio
ID : 2
Format : AAC
Format/Info : Advanced Audio Codec
Format profile : LC
Codec ID : A_AAC-2
Duration : 51 min 13 s
Bit rate : 160 kb/s
Channel(s) : 2 channels
Channel positions : Front: L R
Sampling rate : 48.0 kHz
Frame rate : 46.875 FPS (1024 SPF)
Compression mode : Lossy
Delay relative to video : 20 ms
Stream size : 58.6 MiB (25%)
Title : Mr.Robot.S03E01.FRENCH.LD.AMZN.WEB-DL.x264-FRATERNiTY
Language : French
Default : Yes
Forced : No

Text
ID : 3
Format : UTF-8
Codec ID : S_TEXT/UTF8
Codec ID/Info : UTF-8 Plain Text
Duration : 34 min 55 s
Bit rate : 0 b/s
Count of elements : 4
Stream size : 50.0 Bytes (0%)
Title : French.Forced
Language : French
Default : Yes
Forced : Yes

Menu
00:00:00.000 : en:Studio Logo
00:00:04.795 : en:Previously On
00:02:14.265 : en:Irving talks about redeeming a
00:04:08.391 : en:Irving comes to see Elliot
00:06:02.517 : en:Whiterose wants to get the work
00:09:04.734 : en:Title Sequence
00:09:38.301 : en:Angela explains Elliot about how he
00:12:48.191 : en:Elliot asks help from Darlene
00:18:54.544 : en:Elliot tries to help the hackers to win
00:24:39.798 : en:Irving rescues Elliot and Darlene
00:27:18.999 : en:Elliot decides to call the operation
00:32:02.875 : en:Elliot blames himself for all the
00:35:54.962 : en:Elliot asks Angela to get him a job at
00:40:24.453 : en:Mr. Robot comes to know about
00:43:18.039 : en:Angela tells Irving that she is going
00:46:25.052 : en:Mr. Robot wants to know Angela's
00:50:46.870 : en:End Credits





Mr. Robot S03E01


Mr. Robot S03E01


Mr. Robot S03E01


Mr. Robot S03E01


Mr. Robot S03E01