Calculs meurtriers (2002)

Vidéo
Calculs meurtriers (2002)

Calculs meurtriers (2002)
DVDRip | MKV | 720x406 | French | H264 @ 979 kbps | AAC @ 132 kbps | 2 h 0 min | 959 MiB
Genre: Thriller/Drama

Le corps d'une jeune femme est retrouvé au fond d'un fossé, dans les bois de San Benito, une petite bourgade située sur la côte californienne. L'inspecteur Cassie Mayweather, vétéran de la police criminelle, et son nouveau coéquipier, Sam Kennedy, sont chargés de l'enquête.Les deux policiers passent au crible une série d'indices microscopiques, qui semblent indiquer un acte de violence aveugle. Mais pour Cassie, ce meurtre présente des similitudes avec une affaire lointaine sur laquelle elle eut à témoigner…

murder.by.numbers.2002.french.internal.dvdrip.x264-regret.idx (162.6 KB)
murder.by.numbers.2002.french.internal.dvdrip.x264-regret.sub (8.6 MB)
sample-murder.by.numbers.2002.french.internal.dvdrip.x264-regret.mkv (17.0 MB)
murder.by.numbers.2002.french.internal.dvdrip.x264-regret.mkv (958.9 MB)



General
Unique ID : 188049553976765359297684050395967748397 (0x8D7906D606386949B009591B3E83792D)
Complete name : ./murder.by.numbers.2002.french.internal.dvdrip.x264-regret.mkv
Format : Matroska
Format version : Version 4 / Version 2
File size : 959 MiB
Duration : 2 h 0 min
Overall bit rate : 1 116 kb/s
Encoded date : UTC 2017-11-03 01:51:35
Writing application : mkvmerge v16.0.0 ('Protest') 64-bit
Writing library : libebml v1.3.5 + libmatroska v1.4.8

Video
ID : 1
Format : AVC
Format/Info : Advanced Video Codec
Format profile : High@L3.1
Format settings : CABAC / 15 Ref Frames
Format settings, CABAC : Yes
Format settings, RefFrames : 15 frames
Codec ID : V_MPEG4/ISO/AVC
Duration : 2 h 0 min
Bit rate : 979 kb/s
Width : 720 pixels
Height : 406 pixels
Display aspect ratio : 16:9
Frame rate mode : Constant
Frame rate : 23.976 (24000/1001) FPS
Color space : YUV
Chroma subsampling : 4:2:0
Bit depth : 8 bits
Scan type : Progressive
Bits/(Pixel*Frame) : 0.140
Stream size : 842 MiB (88%)
Writing library : x264 core 152 r2851 ba24899
Encoding settings : cabac=1 / ref=15 / deblock=1:0:0 / analyse=0x3:0x133 / me=umh / subme=10 / psy=1 / psy_rd=1.00:0.00 / mixed_ref=1 / me_range=24 / chroma_me=1 / trellis=2 / 8x8dct=1 / cqm=0 / deadzone=21,11 / fast_pskip=1 / chroma_qp_offset=-2 / threads=12 / lookahead_threads=2 / sliced_threads=0 / nr=0 / decimate=1 / interlaced=0 / bluray_compat=0 / constrained_intra=0 / bframes=8 / b_pyramid=2 / b_adapt=2 / b_bias=0 / direct=3 / weightb=1 / open_gop=0 / weightp=2 / keyint=250 / keyint_min=23 / scenecut=40 / intra_refresh=0 / rc_lookahead=60 / rc=crf / mbtree=1 / crf=19.0 / qcomp=0.60 / qpmin=0 / qpmax=69 / qpstep=4 / ip_ratio=1.40 / aq=1:1.00
Default : Yes
Forced : No

Audio
ID : 2
Format : AAC
Format/Info : Advanced Audio Codec
Format profile : LC
Codec ID : A_AAC-2
Duration : 2 h 0 min
Bit rate : 132 kb/s
Channel(s) : 2 channels
Channel positions : Front: L R
Sampling rate : 48.0 kHz
Frame rate : 46.875 FPS (1024 SPF)
Compression mode : Lossy
Delay relative to video : 20 ms
Stream size : 115 MiB (12%)
Language : French
Default : Yes
Forced : No





Calculs meurtriers (2002)


Calculs meurtriers (2002)


Calculs meurtriers (2002)


Calculs meurtriers (2002)


Calculs meurtriers (2002)