Mystery at the Place Vendôme

Vidéo
Mystery at the Place Vendôme

Mystery at the Place Vendôme (2017)
HDTV | MKV | 1280x718 | French | H264 @ 3170 kbps | AC-3 @ 448 kbps | 1 h 30 min | 2.28 GiB
Genre: Drama, Mystery

1898. Jeanne, a sauce Chef in a Parisian palace, discovers that her son Paul has been kidnapped. If she wants to see him alive she must murder an Austro-Hungarian emissary during a diplomatic dinner party that is to be held at the hotel.

mystere.place.vendome.2017.french.720p.hdtv.x264-sh0w.mkv (2.3 GB)



General
Unique ID : 11354697322293875834444285561876820574 (0x88AD5CCEE494574F07FE8D5EC28B25E)
Complete name : ./mystere.place.vendome.2017.french.720p.hdtv.x264-sh0w.mkv
Format : Matroska
Format version : Version 4 / Version 2
File size : 2.28 GiB
Duration : 1 h 30 min
Overall bit rate : 3 621 kb/s
Encoded date : UTC 2018-01-02 02:15:34
Writing application : mkvmerge v19.0.0 ('Brave Captain') 64-bit
Writing library : libebml v1.3.5 + libmatroska v1.4.8

Video
ID : 1
Format : AVC
Format/Info : Advanced Video Codec
Format profile : High@L4.1
Format settings : CABAC / 5 Ref Frames
Format settings, CABAC : Yes
Format settings, RefFrames : 5 frames
Codec ID : V_MPEG4/ISO/AVC
Duration : 1 h 30 min
Bit rate : 3 171 kb/s
Width : 1 280 pixels
Height : 718 pixels
Display aspect ratio : 16:9
Frame rate mode : Constant
Frame rate : 25.000 FPS
Color space : YUV
Chroma subsampling : 4:2:0
Bit depth : 8 bits
Scan type : Progressive
Bits/(Pixel*Frame) : 0.138
Stream size : 2.00 GiB (88%)
Writing library : x264 core 155 r2893 b00bcaf
Encoding settings : cabac=1 / ref=5 / deblock=1:0:0 / analyse=0x3:0x113 / me=umh / subme=9 / psy=1 / psy_rd=1.00:0.00 / mixed_ref=1 / me_range=16 / chroma_me=1 / trellis=2 / 8x8dct=1 / cqm=0 / deadzone=21,11 / fast_pskip=1 / chroma_qp_offset=-2 / threads=18 / lookahead_threads=1 / sliced_threads=0 / nr=0 / decimate=1 / interlaced=0 / bluray_compat=0 / constrained_intra=0 / bframes=3 / b_pyramid=2 / b_adapt=1 / b_bias=0 / direct=3 / weightb=1 / open_gop=0 / weightp=2 / keyint=250 / keyint_min=25 / scenecut=40 / intra_refresh=0 / rc_lookahead=50 / rc=crf / mbtree=1 / crf=18.0 / qcomp=0.60 / qpmin=10 / qpmax=69 / qpstep=4 / ip_ratio=1.40 / aq=1:1.00
Default : Yes
Forced : No
Color range : Limited
Matrix coefficients : BT.709

Audio
ID : 2
Format : AC-3
Format/Info : Audio Coding 3
Format settings, Endianness : Big
Codec ID : A_AC3
Duration : 1 h 30 min
Bit rate mode : Constant
Bit rate : 448 kb/s
Channel(s) : 6 channels
Channel positions : Front: L C R, Side: L R, LFE
Sampling rate : 48.0 kHz
Frame rate : 31.250 FPS (1536 SPF)
Bit depth : 16 bits
Compression mode : Lossy
Stream size : 289 MiB (12%)
Service kind : Complete Main
Default : Yes
Forced : No





Mystery at the Place Vendôme


Mystery at the Place Vendôme


Mystery at the Place Vendôme


Mystery at the Place Vendôme


Mystery at the Place Vendôme