Nicolas Canteloup : 20 ans de regard sur l'actualité (2017)

Vidéo
Nicolas Canteloup : 20 ans de regard sur l'actualité (2017)

Nicolas Canteloup : 20 ans de regard sur l'actualité (2017)
HDTV | MKV | 1280x618 | French | H264 @ 2061 kbps | AAC @ 61 kbps | 1 h 35 min | 1.42 GiB
Genre: Documentary

Depuis 20 ans, Nicolas Canteloup pose son regard décalé et grinçant sur l’actualité politique. TMC lui consacre une rétrospective d’ampleur revisitant ses spectacles, ses interventions à la radio ou à la télévision. Grâce à ses sketchs, nous revivrons les grands moments qui ont marqué le quotidien des Français et l’histoire politique nationale au cours de ces 20 dernières années, de la Coupe du monde de football de 1998 à la dernière élection présidentielle, en passant par l’affaire DSK ou les attentats de Charlie Hebdo. Nous décrypterons ce travail singulier qui distingue Nicolas Canteloup dans le paysage de l’humour. Quels événements couvrir ? Qui imiter ? Comment s’approprier un personnage ? Quel angle éditorial pour chaque personnage ? Avec son producteur, Jean-Marc Dumontet et ses auteurs, Philippe Caverivière et Laurent Vassilian, nous passerons en revue les imitations les plus marquantes de Nicolas Canteloup et en découvrirons l’envers du décor. Dans ce documentaire exceptionnel, plusieurs personnalités ont également accepté d’apporter un regard rétrospectif sur les imitations et les sketchs dont elles ont fait l’objet. Pour la plupart, ces moments ont parfois été féroces. De Ségolène Royal à Nikos Aliagas ou Didier Deschamps en passant par Michel Drucker, Jean-François Coppé, Nelson Monfort, Roselyne Bachelot ou encore Gérard Schivardi, la diversité des témoignages illustre l’empreinte de Nicolas Canteloup et la pertinence de son regard sur la société française.

nicolas.canteloup.20.ans.de.regard.sur.l.actualite.2017.doc.french.720p.hdtv.x264-sh0w.sample.mkv (12.7 MB)
nicolas.canteloup.20.ans.de.regard.sur.l.actualite.2017.doc.french.720p.hdtv.x264-sh0w.mkv (1.4 GB)



General
Unique ID : 226590142857273916484367043947288910063 (0xAA77AC935635E3018B573E9865ACD8EF)
Complete name : ./nicolas.canteloup.20.ans.de.regard.sur.l.actualite.2017.doc.french.720p.hdtv.x264-sh0w.mkv
Format : Matroska
Format version : Version 4 / Version 2
File size : 1.42 GiB
Duration : 1 h 35 min
Overall bit rate : 2 125 kb/s
Encoded date : UTC 2018-01-03 18:33:47
Writing application : mkvmerge v16.0.0 ('Protest') 64-bit
Writing library : libebml v1.3.5 + libmatroska v1.4.8

Video
ID : 1
Format : AVC
Format/Info : Advanced Video Codec
Format profile : High@L4.1
Format settings : CABAC / 5 Ref Frames
Format settings, CABAC : Yes
Format settings, RefFrames : 5 frames
Codec ID : V_MPEG4/ISO/AVC
Duration : 1 h 35 min
Bit rate : 2 061 kb/s
Width : 1 280 pixels
Height : 618 pixels
Display aspect ratio : 2.071
Frame rate mode : Constant
Frame rate : 25.000 FPS
Color space : YUV
Chroma subsampling : 4:2:0
Bit depth : 8 bits
Scan type : Progressive
Bits/(Pixel*Frame) : 0.104
Stream size : 1.38 GiB (97%)
Writing library : x264 core 155 r2893 b00bcaf
Encoding settings : cabac=1 / ref=5 / deblock=1:0:0 / analyse=0x3:0x113 / me=hex / subme=8 / psy=1 / psy_rd=1.00:0.00 / mixed_ref=1 / me_range=16 / chroma_me=1 / trellis=2 / 8x8dct=1 / cqm=0 / deadzone=21,11 / fast_pskip=1 / chroma_qp_offset=-2 / threads=12 / lookahead_threads=2 / sliced_threads=0 / nr=0 / decimate=1 / interlaced=0 / bluray_compat=0 / constrained_intra=0 / bframes=3 / b_pyramid=2 / b_adapt=1 / b_bias=0 / direct=3 / weightb=1 / open_gop=0 / weightp=2 / keyint=250 / keyint_min=25 / scenecut=40 / intra_refresh=0 / rc_lookahead=50 / rc=crf / mbtree=1 / crf=20.0 / qcomp=0.60 / qpmin=10 / qpmax=69 / qpstep=4 / ip_ratio=1.40 / aq=1:1.00
Default : Yes
Forced : No

Audio
ID : 2
Format : AAC
Format/Info : Advanced Audio Codec
Format profile : HE-AAC / LC
Format settings : Explicit
Codec ID : A_AAC-2
Duration : 1 h 35 min
Bit rate : 61.9 kb/s
Channel(s) : 2 channels
Channel positions : Front: L R
Sampling rate : 48.0 kHz / 24.0 kHz
Frame rate : 23.438 FPS (1024 SPF)
Compression mode : Lossy
Stream size : 42.4 MiB (3%)
Language : French
Default : No
Forced : No





Nicolas Canteloup : 20 ans de regard sur l'actualité (2017)


Nicolas Canteloup : 20 ans de regard sur l'actualité (2017)


Nicolas Canteloup : 20 ans de regard sur l'actualité (2017)


Nicolas Canteloup : 20 ans de regard sur l'actualité (2017)


Nicolas Canteloup : 20 ans de regard sur l'actualité (2017)