Olivier de Benoist, "Très très haut débit" (2012)

Vidéo
Olivier de Benoist, "Très très haut débit" (2012)

Olivier de Benoist, "Très très haut débit" (2012)
HDTV | MKV | 1280x720 | French | H264 @ 2103 kbps | AC-3 @ 192 kbps | 1 h 16 min | 1.23 GiB
Genre: Comedy

Une parcours atypique : débute le One man show sur le tard après de brillantes études de droit. D'après Olivier de Benoist, les hommes sont malmenés par la gent féminine depuis plusieurs siècles. Les scientifiques sont d'accord sur ce point, et vous, Mesdames et Messieurs, qu'en pensez-vous ?

olivier.de.benoist.tres.tres.haut.debit.2012.french.720p.hdtv.x264-deal.sample.mkv (17.6 MB)
Olivier.De.Benoist.Tres.Tres.Haut.Debit.2012.FRENCH.720p.HDTV.x264-DEAL.mkv (1.2 GB)



General
Unique ID : 210067674102828147143086026219670685411 (0x9E098FF8CE8F2CD0B0F611B11B9346E3)
Complete name : ./Olivier.De.Benoist.Tres.Tres.Haut.Debit.2012.FRENCH.720p.HDTV.x264-DEAL.mkv
Format : Matroska
Format version : Version 4 / Version 2
File size : 1.23 GiB
Duration : 1 h 16 min
Overall bit rate : 2 297 kb/s
Encoded date : UTC 2018-01-04 18:06:21
Writing application : mkvmerge v14.0.0 ('Flow') 64bit
Writing library : libebml v1.3.4 + libmatroska v1.4.5

Video
ID : 1
Format : AVC
Format/Info : Advanced Video Codec
Format profile : High@L4.1
Format settings : CABAC / 5 Ref Frames
Format settings, CABAC : Yes
Format settings, RefFrames : 5 frames
Codec ID : V_MPEG4/ISO/AVC
Duration : 1 h 16 min
Bit rate : 2 104 kb/s
Width : 1 280 pixels
Height : 720 pixels
Display aspect ratio : 16:9
Frame rate mode : Constant
Frame rate : 25.000 FPS
Color space : YUV
Chroma subsampling : 4:2:0
Bit depth : 8 bits
Scan type : Progressive
Bits/(Pixel*Frame) : 0.091
Stream size : 1.13 GiB (92%)
Writing library : x264 core 152 r2851 ba24899
Encoding settings : cabac=1 / ref=5 / deblock=1:0:0 / analyse=0x3:0x113 / me=hex / subme=8 / psy=1 / psy_rd=1.00:0.00 / mixed_ref=1 / me_range=16 / chroma_me=1 / trellis=2 / 8x8dct=1 / cqm=0 / deadzone=21,11 / fast_pskip=1 / chroma_qp_offset=-2 / threads=12 / lookahead_threads=2 / sliced_threads=0 / nr=0 / decimate=1 / interlaced=0 / bluray_compat=0 / constrained_intra=0 / bframes=3 / b_pyramid=2 / b_adapt=2 / b_bias=0 / direct=3 / weightb=1 / open_gop=0 / weightp=2 / keyint=250 / keyint_min=25 / scenecut=40 / intra_refresh=0 / rc_lookahead=50 / rc=crf / mbtree=1 / crf=18.0 / qcomp=0.60 / qpmin=0 / qpmax=69 / qpstep=4 / ip_ratio=1.40 / aq=1:1.00
Default : Yes
Forced : No

Audio
ID : 2
Format : AC-3
Format/Info : Audio Coding 3
Format settings, Endianness : Big
Codec ID : A_AC3
Duration : 1 h 16 min
Bit rate mode : Constant
Bit rate : 192 kb/s
Channel(s) : 2 channels
Channel positions : Front: L R
Sampling rate : 48.0 kHz
Frame rate : 31.250 FPS (1536 SPF)
Bit depth : 16 bits
Compression mode : Lossy
Stream size : 106 MiB (8%)
Language : French
Service kind : Complete Main
Default : Yes
Forced : No





Olivier de Benoist, "Très très haut débit" (2012)


Olivier de Benoist, "Très très haut débit" (2012)


Olivier de Benoist, "Très très haut débit" (2012)


Olivier de Benoist, "Très très haut débit" (2012)


Olivier de Benoist, "Très très haut débit" (2012)