San Antonio (2004)

Vidéo
San Antonio (2004)

San Antonio (2004)
BDRip | MKV | 1280x544 | French | H264 @ 5068 kbps | DTS @ 1509 kbps | 1 h 34 min | 4.36 GiB
Genre: Action, Comedy

Une épidémie d'origine terroriste décime à tour de rôle les plus hauts responsables politiques. San Antonio est l'ultime recours, une section parallèle est aussitôt créée pour lui. Il n'a que quelques heures pour dénouer l'écheveau maléfique qui sévit…

muxhd-sanantonio720.mkv (4.4 GB)
muxhd-sanantonio720-sample.mkv (65.5 MB)



General
Unique ID : 206863326035109926187653141567907330101 (0x9BA06D6A211EE80CBFDA1B26F8F47835)
Complete name : ./muxhd-sanantonio720.mkv
Format : Matroska
Format version : Version 2
File size : 4.36 GiB
Duration : 1 h 34 min
Overall bit rate : 6 578 kb/s
Encoded date : UTC 2017-11-09 16:12:56
Writing application : mkvmerge v10.0.0 ('To Drown In You') 64bit
Writing library : libebml v1.3.4 + libmatroska v1.4.5

Video
ID : 1
Format : AVC
Format/Info : Advanced Video Codec
Format profile : High@L4.1
Format settings : CABAC / 5 Ref Frames
Format settings, CABAC : Yes
Format settings, RefFrames : 5 frames
Codec ID : V_MPEG4/ISO/AVC
Duration : 1 h 34 min
Bit rate : 5 068 kb/s
Width : 1 280 pixels
Height : 544 pixels
Display aspect ratio : 2.35:1
Frame rate mode : Constant
Frame rate : 24.000 FPS
Color space : YUV
Chroma subsampling : 4:2:0
Bit depth : 8 bits
Scan type : Progressive
Bits/(Pixel*Frame) : 0.303
Stream size : 3.36 GiB (77%)
Writing library : x264 core 152 r2851 ba24899
Encoding settings : cabac=1 / ref=5 / deblock=1:0:0 / analyse=0x3:0x133 / me=esa / subme=7 / psy=1 / psy_rd=1.00:0.00 / mixed_ref=1 / me_range=16 / chroma_me=1 / trellis=1 / 8x8dct=1 / cqm=0 / deadzone=21,11 / fast_pskip=0 / chroma_qp_offset=-2 / threads=12 / lookahead_threads=2 / sliced_threads=0 / nr=0 / decimate=1 / interlaced=0 / bluray_compat=0 / constrained_intra=0 / bframes=3 / b_pyramid=2 / b_adapt=1 / b_bias=0 / direct=3 / weightb=1 / open_gop=0 / weightp=2 / keyint=240 / keyint_min=24 / scenecut=40 / intra_refresh=0 / rc_lookahead=50 / rc=2pass / mbtree=1 / bitrate=5068 / ratetol=1.0 / qcomp=0.60 / qpmin=0 / qpmax=69 / qpstep=4 / cplxblur=20.0 / qblur=0.5 / ip_ratio=1.40 / aq=1:1.00
Language : English
Default : Yes
Forced : No

Audio
ID : 2
Format : DTS
Format/Info : Digital Theater Systems
Mode : 16
Format settings, Endianness : Big
Codec ID : A_DTS
Duration : 1 h 34 min
Bit rate mode : Constant
Bit rate : 1 509 kb/s
Channel(s) : 6 channels
Channel positions : Front: L C R, Side: L R, LFE
Sampling rate : 48.0 kHz
Frame rate : 93.750 FPS (512 SPF)
Bit depth : 24 bits
Compression mode : Lossy
Stream size : 1.00 GiB (23%)
Language : French
Default : Yes
Forced : No

Menu
00:00:00.000 : en:00:00:00.000
00:07:13.083 : en:00:07:13.083
00:14:08.875 : en:00:14:08.875
00:21:12.917 : en:00:21:12.917
00:28:59.167 : en:00:28:59.167
00:36:40.417 : en:00:36:40.417
00:42:46.083 : en:00:42:46.083
00:50:40.542 : en:00:50:40.542
00:59:10.708 : en:00:59:10.708
01:03:31.000 : en:01:03:31.000
01:13:13.125 : en:01:13:13.125
01:20:44.958 : en:01:20:44.958





San Antonio (2004)


San Antonio (2004)


San Antonio (2004)


San Antonio (2004)