Shoot the Living and Pray for the Dead (1971)

Vidéo
Shoot the Living and Pray for the Dead (1971)

Shoot the Living and Pray for the Dead (1971)
MKV | 1280x546 | English / French | H264 @ 1488 kbps | AC-3 @ 192 kbps | 1 h 34 min | 1.26 GiB
Genre: Western
Subs: Dutch (srt)

Dan Hogan and his gang have held up a bank for $100,000 in gold bars. They meet up at Jackal's Ranch, a weigh station for stage coaches. While waiting for the gold to arrive they encounter a stranger, John Webb, who wants half the gold in exchange for guiding them safely to Mexico. Reluctantly, Dan agrees and they set across the brutal desert for a race to the border with the Rangers hot on their tail. Is John who he says he is? Is he really after the gold or does he have an ulterior motive?

Shoot.the.Living. and.Pray.for.the. Dead.1971.srt (58.7 KB)
Shoot.the.Living.and.Pray.for.the.Dead.1971.mkv (1.3 GB)



General
Unique ID : 289063141438885406189516546007058584669 (0xD9778936BE7FB53852EC7A8AB873945D)
Complete name : ./Shoot.the.Living.and.Pray.for.the.Dead.1971.mkv
Format : Matroska
Format version : Version 4 / Version 2
File size : 1.26 GiB
Duration : 1 h 34 min
Overall bit rate : 1 911 kb/s
Encoded date : UTC 2017-11-20T21:06:33Z
Writing application : HandBrake 1.0.1 2016122900
Writing library : Lavf57.7.2

Video
ID : 1
Format : AVC
Format/Info : Advanced Video Codec
Format profile : Main@L4
Format settings : CABAC / 11 Ref Frames
Format settings, CABAC : Yes
Format settings, RefFrames : 11 frames
Codec ID : V_MPEG4/ISO/AVC
Duration : 1 h 34 min
Bit rate : 1 489 kb/s
Width : 1 280 pixels
Height : 546 pixels
Display aspect ratio : 2.35:1
Frame rate mode : Constant
Frame rate : 23.976 (24000/1001) FPS
Color space : YUV
Chroma subsampling : 4:2:0
Bit depth : 8 bits
Scan type : Progressive
Bits/(Pixel*Frame) : 0.089
Stream size : 1 004 MiB (78%)
Writing library : x264 core 148 r2708 86b7198
Encoding settings : cabac=1 / ref=11 / deblock=1:-1:-1 / analyse=0x1:0x131 / me=tesa / subme=11 / psy=1 / psy_rd=1.00:0.15 / mixed_ref=1 / me_range=24 / chroma_me=1 / trellis=2 / 8x8dct=0 / cqm=0 / deadzone=21,11 / fast_pskip=0 / chroma_qp_offset=-3 / threads=17 / lookahead_threads=4 / sliced_threads=0 / nr=0 / decimate=1 / interlaced=0 / bluray_compat=0 / constrained_intra=0 / bframes=16 / b_pyramid=2 / b_adapt=2 / b_bias=0 / direct=3 / weightb=1 / open_gop=0 / weightp=2 / keyint=240 / keyint_min=24 / scenecut=40 / intra_refresh=0 / rc_lookahead=60 / rc=crf / mbtree=1 / crf=23.0 / qcomp=0.60 / qpmin=0 / qpmax=69 / qpstep=4 / vbv_maxrate=20000 / vbv_bufsize=25000 / crf_max=0.0 / nal_hrd=none / filler=0 / ip_ratio=1.40 / aq=1:1.00
Default : Yes
Forced : No
Color range : Limited
Color primaries : BT.709
Transfer characteristics : BT.709
Matrix coefficients : BT.709

Audio #1
ID : 2
Format : AC-3
Format/Info : Audio Coding 3
Format settings, Endianness : Big
Codec ID : A_AC3
Duration : 1 h 34 min
Bit rate mode : Constant
Bit rate : 192 kb/s
Channel(s) : 2 channels
Channel positions : Front: L R
Sampling rate : 48.0 kHz
Frame rate : 31.250 FPS (1536 SPF)
Bit depth : 16 bits
Compression mode : Lossy
Delay relative to video : -5 ms
Stream size : 129 MiB (10%)
Title : Stereo
Language : English
Service kind : Complete Main
Default : Yes
Forced : No

Audio #2
ID : 3
Format : AC-3
Format/Info : Audio Coding 3
Format settings, Endianness : Big
Codec ID : A_AC3
Duration : 1 h 34 min
Bit rate mode : Constant
Bit rate : 192 kb/s
Channel(s) : 2 channels
Channel positions : Front: L R
Sampling rate : 48.0 kHz
Frame rate : 31.250 FPS (1536 SPF)
Bit depth : 16 bits
Compression mode : Lossy
Delay relative to video : -5 ms
Stream size : 129 MiB (10%)
Title : Stereo
Language : French
Service kind : Complete Main
Default : No
Forced : No

Menu
00:00:00.000 : :Chapter 1
00:04:59.299 : :Chapter 2
00:09:59.599 : :Chapter 3
00:14:59.899 : :Chapter 4
00:19:59.198 : :Chapter 5
00:24:59.498 : :Chapter 6
00:29:59.798 : :Chapter 7
00:34:59.097 : :Chapter 8
00:39:59.397 : :Chapter 9
00:44:59.697 : :Chapter 10
00:49:59.997 : :Chapter 11
00:54:59.296 : :Chapter 12
00:59:59.596 : :Chapter 13
01:04:59.896 : :Chapter 14
01:09:59.195 : :Chapter 15
01:14:59.495 : :Chapter 16
01:19:59.795 : :Chapter 17
01:24:59.094 : :Chapter 18
01:29:59.394 : :Chapter 19





Shoot the Living and Pray for the Dead (1971)


Shoot the Living and Pray for the Dead (1971)


Shoot the Living and Pray for the Dead (1971)


Shoot the Living and Pray for the Dead (1971)


Shoot the Living and Pray for the Dead (1971)