Stan Against Evil S03E03

Séries télévisées
Stan Against Evil S03E03

Stan Against Evil S03E03
HDTV | MKV | 720x402 | English | H264 @ 1220 kbps | AAC @ 108 kbps | 21 min 31 s | 205 MiB
Genre: Comedy

An aging police sheriff who has recently lost his position due to an angry outburst begrudgingly joins an alliance with new sheriff, Evie Barret to battle angry demons haunting their small New Hampshire town.

stan.against.evil.0303-yestv.mkv (204.9 MB)
stan.against.evil.0303-yestv-sample.mkv (9.2 MB)



General
Unique ID : 171275039868813232712849031074954351826 (0x80DA5F6FE2012AA70945E387A60C14D2)
Complete name : ./stan.against.evil.0303-yestv.mkv
Format : Matroska
Format version : Version 2
File size : 205 MiB
Duration : 21 min 31 s
Overall bit rate : 1 331 kb/s
Encoded date : UTC 2018-11-08 23:16:31
Writing application : mkvmerge v27.0.0 ('Metropolis') 64-bit
Writing library : libebml v1.3.6 + libmatroska v1.4.9

Video
ID : 1
Format : AVC
Format/Info : Advanced Video Codec
Format profile : High@L3.1
Format settings : CABAC / 8 Ref Frames
Format settings, CABAC : Yes
Format settings, RefFrames : 8 frames
Codec ID : V_MPEG4/ISO/AVC
Duration : 21 min 31 s
Bit rate : 1 220 kb/s
Width : 720 pixels
Height : 402 pixels
Display aspect ratio : 16:9
Frame rate mode : Constant
Frame rate : 23.976 (24000/1001) FPS
Color space : YUV
Chroma subsampling : 4:2:0
Bit depth : 8 bits
Scan type : Progressive
Bits/(Pixel*Frame) : 0.176
Stream size : 188 MiB (92%)
Writing library : x264 core 157 r2935 545de2f
Encoding settings : cabac=1 / ref=8 / deblock=1:0:0 / analyse=0x3:0x133 / me=umh / subme=9 / psy=1 / psy_rd=1.00:0.00 / mixed_ref=1 / me_range=16 / chroma_me=1 / trellis=2 / 8x8dct=1 / cqm=0 / deadzone=21,11 / fast_pskip=1 / chroma_qp_offset=-2 / threads=13 / lookahead_threads=1 / sliced_threads=0 / nr=0 / decimate=1 / interlaced=0 / bluray_compat=0 / constrained_intra=0 / bframes=3 / b_pyramid=2 / b_adapt=2 / b_bias=0 / direct=3 / weightb=1 / open_gop=0 / weightp=2 / keyint=240 / keyint_min=24 / scenecut=40 / intra_refresh=0 / rc_lookahead=60 / rc=crf / mbtree=1 / crf=19.0 / qcomp=0.60 / qpmin=0 / qpmax=69 / qpstep=4 / ip_ratio=1.40 / aq=1:1.00
Default : Yes
Forced : No
Color range : Limited
Matrix coefficients : BT.709

Audio
ID : 2
Format : AAC
Format/Info : Advanced Audio Codec
Format profile : LC
Codec ID : A_AAC-2
Duration : 21 min 31 s
Bit rate : 108 kb/s
Channel(s) : 2 channels
Channel positions : Front: L R
Sampling rate : 48.0 kHz
Frame rate : 46.875 FPS (1024 SPF)
Compression mode : Lossy
Delay relative to video : 5 ms
Stream size : 16.7 MiB (8%)
Default : Yes
Forced : No





Stan Against Evil S03E03


Stan Against Evil S03E03


Stan Against Evil S03E03


Stan Against Evil S03E03


Stan Against Evil S03E03