La case du siècle - Syndicats: Histoire d'un contre-pouvoir 1884-1981

Vidéo
La case du siècle - Syndicats: Histoire d'un contre-pouvoir 1884-1981

La case du siècle - Syndicats: Histoire d'un contre-pouvoir 1884-1981
HDTV | MKV | 1280x720 | H264 @ 2946 kbps | AC-3 @ 384 kbps | 42 min 30 s | 1.01 GiB
Genre: Documentaries

Depuis plus d'un siècle, l'histoire des syndicats accompagne les moments les plus marquants de l'Histoire de France. Forte de rebondissements sociaux, économiques et politiques souvent inattendus, cette série documentaire saisit les ressorts de l'affrontement entre salariés et patronat. Elle rappelle les grandes conquêtes sociales : congés payés, journée de huit heures, retraite à 60 ans, sécurité sociale, assurance chômage, Autant de droits acquis par la lutte ou la négociation, qui constituent le socle aujourd'hui menacé du modèle social français. Les deux épisodes de cette saga éclairent sur le rôle des syndicats français et leur avenir à l'heure de la mondialisation, et des inévitables mutations du monde du travail.

43f7380c92594ad9b5f3d28bdc512465.mkv (1.0 GB)



General
Unique ID : 142243052614851451197605246108960982201 (0x6B0303F3F4555E4BDA62C4EDC52284B9)
Complete name : ./43f7380c92594ad9b5f3d28bdc512465.mkv
Format : Matroska
Format version : Version 4 / Version 2
File size : 1.01 GiB
Duration : 42 min 30 s
Overall bit rate : 3 398 kb/s
Writing application : Lavf57.82.100
Writing library : Lavf57.82.100
ErrorDetectionType : Per level 1

Video
ID : 1
Format : AVC
Format/Info : Advanced Video Codec
Format profile : High@L4.1
Format settings : CABAC / 5 Ref Frames
Format settings, CABAC : Yes
Format settings, RefFrames : 5 frames
Codec ID : V_MPEG4/ISO/AVC
Duration : 42 min 30 s
Bit rate : 2 946 kb/s
Width : 1 280 pixels
Height : 720 pixels
Display aspect ratio : 16:9
Frame rate mode : Constant
Frame rate : 29.970 (30000/1001) FPS
Color space : YUV
Chroma subsampling : 4:2:0
Bit depth : 8 bits
Scan type : Progressive
Bits/(Pixel*Frame) : 0.107
Stream size : 896 MiB (87%)
Writing library : x264 core 155 r2893 b00bcaf
Encoding settings : cabac=1 / ref=5 / deblock=1:0:0 / analyse=0x3:0x113 / me=hex / subme=8 / psy=1 / psy_rd=1.00:0.00 / mixed_ref=1 / me_range=16 / chroma_me=1 / trellis=2 / 8x8dct=1 / cqm=0 / deadzone=21,11 / fast_pskip=1 / chroma_qp_offset=-2 / threads=6 / lookahead_threads=1 / sliced_threads=0 / nr=0 / decimate=1 / interlaced=0 / bluray_compat=0 / constrained_intra=0 / bframes=3 / b_pyramid=2 / b_adapt=1 / b_bias=0 / direct=1 / weightb=1 / open_gop=0 / weightp=2 / keyint=300 / keyint_min=29 / scenecut=40 / intra_refresh=0 / rc_lookahead=50 / rc=crf / mbtree=1 / crf=20.0 / qcomp=0.60 / qpmin=0 / qpmax=69 / qpstep=4 / vbv_maxrate=62500 / vbv_bufsize=78125 / crf_max=0.0 / nal_hrd=none / filler=0 / ip_ratio=1.40 / aq=1:1.00
Default : Yes
Forced : No
Color range : Limited
Color primaries : BT.709
Matrix coefficients : BT.709

Audio
ID : 2
Format : AC-3
Format/Info : Audio Coding 3
Format settings, Endianness : Big
Codec ID : A_AC3
Duration : 42 min 30 s
Bit rate mode : Constant
Bit rate : 384 kb/s
Channel(s) : 6 channels
Channel positions : Front: L C R, Side: L R, LFE
Sampling rate : 48.0 kHz
Frame rate : 31.250 FPS (1536 SPF)
Bit depth : 16 bits
Compression mode : Lossy
Stream size : 117 MiB (11%)
Service kind : Complete Main
Default : Yes
Forced : No





La case du siècle - Syndicats: Histoire d'un contre-pouvoir 1884-1981


La case du siècle - Syndicats: Histoire d'un contre-pouvoir 1884-1981


La case du siècle - Syndicats: Histoire d'un contre-pouvoir 1884-1981


La case du siècle - Syndicats: Histoire d'un contre-pouvoir 1884-1981


La case du siècle - Syndicats: Histoire d'un contre-pouvoir 1884-1981