Trois chambres à Manhattan (1965)

Vidéo
Trois chambres à Manhattan (1965)

Trois chambres à Manhattan (1965)
BDRip | MKV | 1200x720 | French | H264 @ 4884 kbps | DTS @ 768 kbps | 1 h 50 min | 4.37 GiB
Subtitles: French
Genre: Drama/Black and white

François, qui a été en France un acteur réputé, quitte son pays pour des raisons sentimentales. Mais, à Hollywood, il n'a connu aucun succès et bat maintenant le pavé de New-York, à la recherche de minables contrats de télévision. En pleine amertume, il fait la connaissance d'une jeune femme : Kay. Celle-ci est une autre épave : autrefois mariée à un comte italien, diplomate de surcroît, elle l'a quitté par lassitude en abandonnant sa fillette.

trois.chambres.a.manhattan.1965.french.720p.bluray.x264-fidelio.mkv (4.4 GB)



General
Unique ID : 0 (0x0)
Complete name : ./trois.chambres.a.manhattan.1965.french.720p.bluray.x264-fidelio.mkv
Format : Matroska
Format version : Version 4 / Version 2
File size : 4.37 GiB
Duration : 1 h 50 min
Overall bit rate : 5 654 kb/s
Encoded date : UTC 2010-02-22 21:41:29
Writing application : no_variable_data
Writing library : no_variable_data

Video
ID : 1
Format : AVC
Format/Info : Advanced Video Codec
Format profile : High@L4.1
Format settings : CABAC / 9 Ref Frames
Format settings, CABAC : Yes
Format settings, RefFrames : 9 frames
Codec ID : V_MPEG4/ISO/AVC
Duration : 1 h 50 min
Bit rate : 4 884 kb/s
Width : 1 200 pixels
Height : 720 pixels
Display aspect ratio : 5:3
Frame rate mode : Constant
Frame rate : 24.000 FPS
Color space : YUV
Chroma subsampling : 4:2:0
Bit depth : 8 bits
Scan type : Progressive
Bits/(Pixel*Frame) : 0.236
Stream size : 3.69 GiB (84%)
Writing library : x264 core 152 r2851 ba24899
Encoding settings : cabac=1 / ref=9 / deblock=1:0:0 / analyse=0x3:0x133 / me=umh / subme=10 / psy=1 / psy_rd=1.00:0.00 / mixed_ref=1 / me_range=24 / chroma_me=1 / trellis=2 / 8x8dct=1 / cqm=0 / deadzone=21,11 / fast_pskip=1 / chroma_qp_offset=-2 / threads=18 / lookahead_threads=3 / sliced_threads=0 / nr=0 / decimate=1 / interlaced=0 / bluray_compat=0 / constrained_intra=0 / bframes=8 / b_pyramid=2 / b_adapt=2 / b_bias=0 / direct=3 / weightb=1 / open_gop=0 / weightp=2 / keyint=250 / keyint_min=24 / scenecut=40 / intra_refresh=0 / rc_lookahead=60 / rc=2pass / mbtree=1 / bitrate=4884 / ratetol=1.0 / qcomp=0.60 / qpmin=0 / qpmax=69 / qpstep=4 / cplxblur=20.0 / qblur=0.5 / ip_ratio=1.40 / aq=1:1.00
Default : Yes
Forced : No
Statistics Tags Issue : no_variable_data 1970-01-01 00:00:00 / no_variable_data 2010-02-22 21:41:29
FromStats_BitRate : 4883640
FromStats_Duration : 01:50:43.000000000
FromStats_FrameCount : 159432
FromStats_StreamSize : 4055253075

Audio
ID : 2
Format : DTS
Format/Info : Digital Theater Systems
Mode : 16
Format settings, Endianness : Big
Codec ID : A_DTS
Duration : 1 h 50 min
Bit rate mode : Constant
Bit rate : 768 kb/s
Channel(s) : 2 channels
Channel positions : Front: L R
Sampling rate : 48.0 kHz
Frame rate : 93.750 FPS (512 SPF)
Bit depth : 24 bits
Compression mode : Lossy
Stream size : 608 MiB (14%)
Title : French audio
Language : French
Default : Yes
Forced : No
Statistics Tags Issue : no_variable_data 1970-01-01 00:00:00 / no_variable_data 2010-02-22 21:41:29
FromStats_BitRate : 768000
FromStats_Duration : 01:50:43.008000000
FromStats_FrameCount : 622782
FromStats_StreamSize : 637728768

Text #1
ID : 3
Format : UTF-8
Codec ID : S_TEXT/UTF8
Codec ID/Info : UTF-8 Plain Text
Title : Forced French subtitles
Language : French
Default : Yes
Forced : No
Statistics Tags Issue : no_variable_data 1970-01-01 00:00:00 / no_variable_data 2010-02-22 21:41:29
FromStats_BitRate : 2
FromStats_Duration : 01:33:10.084000000
FromStats_FrameCount : 58
FromStats_StreamSize : 1697

Text #2
ID : 4
Format : UTF-8
Codec ID : S_TEXT/UTF8
Codec ID/Info : UTF-8 Plain Text
Title : French SDH
Language : French
Default : No
Forced : No
Statistics Tags Issue : no_variable_data 1970-01-01 00:00:00 / no_variable_data 2010-02-22 21:41:29
FromStats_BitRate : 52
FromStats_Duration : 01:50:40.791000000
FromStats_FrameCount : 1319
FromStats_StreamSize : 43352

Menu
00:00:00.000 : en:00:00:00.000
00:08:15.250 : en:00:08:15.250
00:17:18.000 : en:00:17:18.000
00:25:34.250 : en:00:25:34.250
00:35:07.000 : en:00:35:07.000
00:44:34.833 : en:00:44:34.833
00:52:52.792 : en:00:52:52.792
01:02:06.667 : en:01:02:06.667
01:11:12.000 : en:01:11:12.000
01:19:27.375 : en:01:19:27.375
01:29:03.583 : en:01:29:03.583
01:39:11.125 : en:01:39:11.125





Trois chambres à Manhattan (1965)


Trois chambres à Manhattan (1965)


Trois chambres à Manhattan (1965)


Trois chambres à Manhattan (1965)


Trois chambres à Manhattan (1965)