Harry Potter à l'école des sorciers (2001)

Vidéo
Harry Potter à l'école des sorciers (2001)

Harry Potter à l'école des sorciers (2001)
BDRip | MKV | 1920x1080 | French / English | H264 @ 8223 kbps | AC-3 @ 448 kbps | 2 h 32 min | 10.7 GiB
Subtitles: French, English
Genre: Adventure, Family, Fantasy

Harry Potter has lived under the stairs at his aunt and uncle's house his whole life. But on his 11th birthday, he learns he's a powerful wizard – with a place waiting for him at the Hogwarts School of Witchcraft and Wizardry. As he learns to harness his newfound powers with the help of the school's kindly headmaster, Harry uncovers the truth about his parents' deaths – and about the villain who's to blame.

Harry Potter à l'Ecole des Sorciers (2001).mkv (10.7 GB)



General
Unique ID : 184139075148981167759320177559061947699 (0x8A87E558232A3CF487D96DE381CC6533)
Complete name : ./Harry Potter à l'Ecole des Sorciers (2001).mkv
Format : Matroska
Format version : Version 2
File size : 10.7 GiB
Duration : 2 h 32 min
Overall bit rate mode : Variable
Overall bit rate : 10.1 Mb/s
Encoded date : UTC 2015-09-18 01:57:38
Writing application : mkvmerge v8.2.0 ('World of Adventure') 32bit
Writing library : libebml v1.3.1 + libmatroska v1.4.2

Video
ID : 1
Format : AVC
Format/Info : Advanced Video Codec
Format profile : High@L4.1
Format settings : CABAC / 3 Ref Frames
Format settings, CABAC : Yes
Format settings, RefFrames : 3 frames
Codec ID : V_MPEG4/ISO/AVC
Duration : 2 h 32 min
Bit rate : 8 223 kb/s
Width : 1 920 pixels
Height : 1 080 pixels
Display aspect ratio : 16:9
Frame rate mode : Constant
Frame rate : 23.976 (24000/1001) FPS
Color space : YUV
Chroma subsampling : 4:2:0
Bit depth : 8 bits
Scan type : Progressive
Bits/(Pixel*Frame) : 0.165
Stream size : 8.75 GiB (82%)
Writing library : x264 core 148 r2597 e86f3a1
Encoding settings : cabac=1 / ref=4 / deblock=1:-2:-1 / analyse=0x3:0x133 / me=umh / subme=9 / psy=1 / psy_rd=1.00:0.06 / mixed_ref=1 / me_range=24 / chroma_me=1 / trellis=2 / 8x8dct=1 / cqm=0 / deadzone=21,11 / fast_pskip=0 / chroma_qp_offset=-5 / threads=12 / lookahead_threads=1 / sliced_threads=0 / nr=0 / decimate=1 / interlaced=0 / bluray_compat=0 / constrained_intra=0 / bframes=3 / b_pyramid=1 / b_adapt=2 / b_bias=0 / direct=3 / weightb=1 / open_gop=0 / weightp=2 / keyint=240 / keyint_min=23 / scenecut=40 / intra_refresh=0 / rc_lookahead=60 / rc=2pass / mbtree=1 / bitrate=8223 / ratetol=1.0 / qcomp=0.60 / qpmin=10 / qpmax=51 / qpstep=4 / cplxblur=20.0 / qblur=0.5 / vbv_maxrate=50000 / vbv_bufsize=62500 / nal_hrd=none / filler=0 / ip_ratio=1.40 / aq=1:1.00
Language : English
Default : Yes
Forced : No

Audio #1
ID : 2
Format : AC-3
Format/Info : Audio Coding 3
Format settings, Endianness : Big
Codec ID : A_AC3
Duration : 2 h 32 min
Bit rate mode : Constant
Bit rate : 448 kb/s
Channel(s) : 6 channels
Channel positions : Front: L C R, Side: L R, LFE
Sampling rate : 48.0 kHz
Frame rate : 31.250 FPS (1536 SPF)
Bit depth : 16 bits
Compression mode : Lossy
Stream size : 488 MiB (4%)
Language : French
Service kind : Complete Main
Default : Yes
Forced : No

Audio #2
ID : 3
Format : FLAC
Format/Info : Free Lossless Audio Codec
Codec ID : A_FLAC
Duration : 2 h 32 min
Bit rate mode : Variable
Bit rate : 1 361 kb/s
Channel(s) : 6 channels
Channel positions : Front: L C R, Side: L R, LFE
Sampling rate : 48.0 kHz
Frame rate : 11.719 FPS (4096 SPF)
Bit depth : 16 bits
Stream size : 1.45 GiB (14%)
Writing library : libFLAC 1.2.1 (UTC 2007-09-17)
Language : English
Default : No
Forced : No

Text #1
ID : 4
Format : PGS
Muxing mode : zlib
Codec ID : S_HDMV/PGS
Codec ID/Info : Picture based subtitle format used on BDs/HD-DVDs
Duration : 1 h 21 min
Bit rate : 62 b/s
Count of elements : 12
Stream size : 37.4 KiB (0%)
Language : French
Default : Yes
Forced : Yes

Text #2
ID : 5
Format : PGS
Muxing mode : zlib
Codec ID : S_HDMV/PGS
Codec ID/Info : Picture based subtitle format used on BDs/HD-DVDs
Duration : 2 h 30 min
Bit rate : 9 343 b/s
Count of elements : 2858
Stream size : 10.1 MiB (0%)
Language : French
Default : No
Forced : No

Text #3
ID : 6
Format : PGS
Muxing mode : zlib
Codec ID : S_HDMV/PGS
Codec ID/Info : Picture based subtitle format used on BDs/HD-DVDs
Duration : 2 h 30 min
Bit rate : 10.0 kb/s
Count of elements : 2454
Stream size : 10.8 MiB (0%)
Language : English
Default : No
Forced : No

Menu
00:00:00.000 : en:00:00:00.000
00:04:05.412 : en:00:04:05.412
00:08:11.157 : en:00:08:11.157
00:12:17.403 : en:00:12:17.403
00:18:25.271 : en:00:18:25.271
00:21:43.636 : en:00:21:43.636
00:24:41.647 : en:00:24:41.647
00:28:49.561 : en:00:28:49.561
00:31:05.197 : en:00:31:05.197
00:34:05.543 : en:00:34:05.543
00:37:49.601 : en:00:37:49.601
00:41:29.487 : en:00:41:29.487
00:46:13.437 : en:00:46:13.437
00:50:29.026 : en:00:50:29.026
00:55:04.301 : en:00:55:04.301
01:00:55.652 : en:01:00:55.652
01:03:43.987 : en:01:03:43.987
01:07:48.231 : en:01:07:48.231
01:13:49.258 : en:01:13:49.258
01:20:17.980 : en:01:20:17.980
01:23:54.529 : en:01:23:54.529
01:28:32.474 : en:01:28:32.474
01:31:42.497 : en:01:31:42.497
01:36:42.630 : en:01:36:42.630
01:42:34.815 : en:01:42:34.815
01:49:05.038 : en:01:49:05.038
01:53:21.628 : en:01:53:21.628
01:58:09.749 : en:01:58:09.749
02:03:44.751 : en:02:03:44.751
02:06:56.108 : en:02:06:56.108
02:10:55.347 : en:02:10:55.347
02:14:18.884 : en:02:14:18.884
02:17:29.575 : en:02:17:29.575
02:21:44.663 : en:02:21:44.663
02:24:10.809 : en:02:24:10.809





Harry Potter à l'école des sorciers (2001)


Harry Potter à l'école des sorciers (2001)


Harry Potter à l'école des sorciers (2001)


Harry Potter à l'école des sorciers (2001)


Harry Potter à l'école des sorciers (2001)